×

¿Problemas para descargar con Mozilla, EDGE? Deshabilita la opción "Abrir vinculos en una pestaña nueva" tal como lo muestra ésta imagen.

La dama y el vagabundo (1955) REMUX 1080p Latino – CMHDD

351 vistas

Información de La dama y el vagabundo (1955) REMUX 1080p Latino – CMHDD

Datos de la película

  • Calidad:
  • Audio: Español Latino AC3 5.1 BLURAY - Ingles DTS-HD Master 7.1 BLURAY
  • Subtitulos: Español Latino SRT
  • Resolución: 1920x1080p
  • Formato: MKV
  • Codec: H.264
  • Encoder: Dracarys
  • Mediainfo: Clic para Mostrar Datos Ver
  • Format                      : Matroska
    Format version              : Version 4
    File size                   : 19.1 GiB
    Duration                    : 1 h 16 min
    Overall bit rate mode       : Variable
    Overall bit rate            : 35.7 Mb/s
    Movie name                  : La dama y el vagabundo (1955) REMUX 1080p Latino - CMHDD
    Encoded date                : UTC 2020-08-08 03:40:34
    Writing application         : mkvmerge v46.0.0 ('No Deeper Escape') 64-bit
    Writing library             : libebml v1.3.10 + libmatroska v1.5.2

    Video
    ID                          : 1
    Format                      : AVC
    Format/Info                 : Advanced Video Codec
    Format profile              : High@L4.1
    Format settings             : CABAC / 4 Ref Frames
    Format settings, CABAC      : Yes
    Format settings, Reference  : 4 frames
    Codec ID                    : V_MPEG4/ISO/AVC
    Duration                    : 1 h 16 min
    Bit rate mode               : Variable
    Bit rate                    : 29.8 Mb/s
    Maximum bit rate            : 35.0 Mb/s
    Width                       : 1 920 pixels
    Height                      : 1 080 pixels
    Display aspect ratio        : 16:9
    Frame rate mode             : Constant
    Frame rate                  : 23.976 (24000/1001) FPS
    Color space                 : YUV
    Chroma subsampling          : 4:2:0
    Bit depth                   : 8 bits
    Scan type                   : Progressive
    Bits/(Pixel*Frame)          : 0.599
    Stream size                 : 15.9 GiB (83%)
    Language                    : English
    Default                     : No
    Forced                      : No

    Audio #1
    ID                          : 2
    Format                      : AC-3
    Format/Info                 : Audio Coding 3
    Commercial name             : Dolby Digital
    Codec ID                    : A_AC3
    Duration                    : 1 h 16 min
    Bit rate mode               : Constant
    Bit rate                    : 640 kb/s
    Channel(s)                  : 6 channels
    Channel layout              : L R C LFE Ls Rs
    Sampling rate               : 48.0 kHz
    Frame rate                  : 31.250 FPS (1536 SPF)
    Compression mode            : Lossy
    Stream size                 : 350 MiB (2%)
    Language                    : Spanish
    Service kind                : Complete Main
    Default                     : Yes
    Forced                      : No

    Audio #2
    ID                          : 3
    Format                      : DTS XLL
    Format/Info                 : Digital Theater Systems
    Commercial name             : DTS-HD Master Audio
    Codec ID                    : A_DTS
    Duration                    : 1 h 16 min
    Bit rate mode               : Variable
    Bit rate                    : 5 318 kb/s
    Channel(s)                  : 8 channels
    Channel layout              : C L R LFE Lb Rb Lss Rss
    Sampling rate               : 48.0 kHz
    Frame rate                  : 93.750 FPS (512 SPF)
    Bit depth                   : 24 bits
    Compression mode            : Lossless
    Stream size                 : 2.82 GiB (15%)
    Language                    : English
    Default                     : No
    Forced                      : No

    Text
    ID                          : 4
    Format                      : UTF-8
    Codec ID                    : S_TEXT/UTF8
    Codec ID/Info               : UTF-8 Plain Text
    Duration                    : 1 h 15 min
    Bit rate                    : 46 b/s
    Count of elements           : 1017
    Stream size                 : 25.7 KiB (0%)
    Language                    : Spanish
    Default                     : No
    Forced                      : No

  • Peso: 19.1 GiB

Sinopsis

Reina es una preciosa perrita de pura raza que vive feliz en su hogar. Jaimito y Linda, la miman mucho y ella corresponde feliz a sus cuidados. Sin embargo, el día en que sus dueños deciden hacer un viaje, la vida de Reina se ve alterada; la llegada de la tía Sara con sus gatos no provoca más que sobresaltos. Menos mal que conoce a Golfo, un perro vagabundo muy simpático

Ficha técnica

Video trailer de la película

Enlaces de descarga

Rip de Bluray

Descargar La dama y el vagabundo (1955) REMUX 1080p Latino – CMHDD




Aportes de DPeliculasHDmega la pass es:dpeliculashdmega.org Aportes de CinemaniaHD la pass es:cinemaniahdd.com
Guardado en : Animación , Familia , Romance

Películas relacionadas

  • Groundhog Day (1993) REMUX 4K HDR Latino – CMHDD

    Groundhog Day (1993) REMUX 4K HDR Latino – CMHDD

    1993
    Groundhog Day (1993) REMUX 4K HDR Latino – CMHDD

    1h 41m 1993

    Phil, hombre del tiempo de una cadena de televisión, es enviado un año más a Punxstawnwey, a cubrir...

    Director: Sam Hoffman

    Género: Comedia

    Actores: Willie Garson

  • La Princesa Prometida (1987) REMUX 1080p Latino

    La Princesa Prometida (1987) REMUX 1080p Latino

    1987
    La Princesa Prometida (1987) REMUX 1080p Latino

    1h 38m 1987

    Descargar La Princesa Prometida (1987) REMUX 1080p Latino. Después de buscar fortuna durante cinco años,...

    Director: Rob Reiner

    Género: Aventura

    Actores: Willy DeVille

  • La adorable revoltosa (1938) REMUX 1080p Latino

    La adorable revoltosa (1938) REMUX 1080p Latino

    1938
    La adorable revoltosa (1938) REMUX 1080p Latino

    1h 42m 1938

    Descargar La adorable revoltosa (1938) REMUX 1080p Latino. David Huxley (Cary Grant) es un paleontólogo...

    Director: Howard Hawks

    Género: Comedia

    Actores: William Benedict

  • Ophelia (2019) PLACEBO Full HD 1080p Latino

    Ophelia (2019) PLACEBO Full HD 1080p Latino

    2019
    Ophelia (2019) PLACEBO Full HD 1080p Latino

    1h 54m 2019

    Descargar Ophelia (2019) PLACEBO Full HD 1080p Latino. Ophelia, es una joven adolescente e impetuosa...

    Director: Mark Taylor

    Género: FULL 1080p Plateadas

    Actores: Veronika Strapková

descargar La dama y el vagabundo (1955) REMUX 1080p Latino – CMHDD 1080p gratis, La dama y el vagabundo (1955) REMUX 1080p Latino – CMHDD mega 1 link, La dama y el vagabundo (1955) REMUX 1080p Latino – CMHDD pelicula completa, descargar La dama y el vagabundo (1955) REMUX 1080p Latino – CMHDD gratis en mega.

La dama y el vagabundo (1955) REMUX 1080p Latino – CMHDD pelicula full hd, La dama y el vagabundo (1955) REMUX 1080p Latino – CMHDD mega latino, La dama y el vagabundo (1955) REMUX 1080p Latino – CMHDD 4k latino, La dama y el vagabundo (1955) REMUX 1080p Latino – CMHDD pelicula completa, La dama y el vagabundo (1955) REMUX 1080p Latino – CMHDD descargar gratis, descargar La dama y el vagabundo (1955) REMUX 1080p Latino – CMHDD pelicula latino, La dama y el vagabundo (1955) REMUX 1080p Latino – CMHDD 1 link mega, La dama y el vagabundo (1955) REMUX 1080p Latino – CMHDD 1 link google drive, La dama y el vagabundo (1955) REMUX 1080p Latino – CMHDD hd 1080p latino.
Comentarios 0