La Dama De La Mansión (2021) PLACEBO Full HD 1080p Latino

14 vistas
1 estrella2 estrellas3 estrellas4 estrellas5 estrellas (Ninguna valoración todavía)
Cargando...

Información de La Dama De La Mansión (2021) PLACEBO Full HD 1080p Latino

Datos de la película

  • Calidad: Full 1080p
  • Audio: Se especifica abajo de la Sinopsis
  • Subtitulos: Español Latino PGS - Ingles PGS
  • Resolución: 1920x1080p
  • Formato: MKV
  • Codec: H.264
  • Encoder: Melkor
  • Mediainfo: Clic para Mostrar Datos Ver
  • La Dama De La Mansion (2021) PLACEBO 1080p Latino.mkv
    Format                      : Matroska
    Format version              : Version 4
    File size                   : 7.39 GiB
    Duration                    : 1 h 36 min
    Overall bit rate            : 11.0 Mb/s
    Movie name                  : Lady of the Manor (2021) CinemaniaHDD.Net
    Encoded date                : UTC 2021-10-10 04:24:09
    Writing application         : mkvmerge v56.1.0 ('My Friend') 64-bit
    Writing library             : libebml v1.4.2 + libmatroska v1.6.4
    Attachments                 : CINEMANIAHD.png

    Video
    ID                          : 1
    Format                      : AVC
    Format/Info                 : Advanced Video Codec
    Format profile              : High@L4.1
    Format settings             : CABAC / 4 Ref Frames
    Format settings, CABAC      : Yes
    Format settings, Reference  : 4 frames
    Codec ID                    : V_MPEG4/ISO/AVC
    Duration                    : 1 h 36 min
    Bit rate                    : 8 119 kb/s
    Width                       : 1 920 pixels
    Height                      : 1 080 pixels
    Display aspect ratio        : 16:9
    Frame rate mode             : Constant
    Frame rate                  : 23.976 (24000/1001) FPS
    Color space                 : YUV
    Chroma subsampling          : 4:2:0
    Bit depth                   : 8 bits
    Scan type                   : Progressive
    Bits/(Pixel*Frame)          : 0.163
    Stream size                 : 5.48 GiB (74%)
    Title                       : Full HD1080p [CinemaniaHDD]
    Writing library             : x264 core 163 r3059 b684ebe0
    Encoding settings           : cabac=1 / ref=4 / deblock=1:0:0 / analyse=0x3:0x133 / me=tesa / subme=11 / psy=1 / psy_rd=1.00:0.00 / mixed_ref=1 / me_range=24 / chroma_me=1 / trellis=2 / 8x8dct=1 / cqm=0 / deadzone=21,11 / fast_pskip=0 / chroma_qp_offset=-2 / threads=24 / lookahead_threads=6 / sliced_threads=0 / nr=0 / decimate=1 / interlaced=0 / bluray_compat=0 / constrained_intra=0 / bframes=16 / b_pyramid=2 / b_adapt=2 / b_bias=0 / direct=3 / weightb=1 / open_gop=0 / weightp=2 / keyint=240 / keyint_min=24 / scenecut=40 / intra_refresh=0 / rc_lookahead=60 / rc=crf / mbtree=1 / crf=19.0 / qcomp=0.60 / qpmin=0 / qpmax=69 / qpstep=4 / vbv_maxrate=62500 / vbv_bufsize=78125 / crf_max=0.0 / nal_hrd=none / filler=0 / ip_ratio=1.40 / aq=1:1.00
    Default                     : Yes
    Forced                      : Yes
    Color range                 : Limited
    Color primaries             : BT.709
    Transfer characteristics    : BT.709
    Matrix coefficients         : BT.709

    Audio #1
    ID                          : 2
    Format                      : AC-3
    Format/Info                 : Audio Coding 3
    Commercial name             : Dolby Digital
    Codec ID                    : A_AC3
    Duration                    : 1 h 36 min
    Bit rate mode               : Constant
    Bit rate                    : 640 kb/s
    Channel(s)                  : 6 channels
    Channel layout              : L R C LFE Ls Rs
    Sampling rate               : 48.0 kHz
    Frame rate                  : 31.250 FPS (1536 SPF)
    Compression mode            : Lossy
    Stream size                 : 442 MiB (6%)
    Title                       : Español Latino [CinemaniaHDD]
    Language                    : Spanish
    Service kind                : Complete Main
    Default                     : Yes
    Forced                      : Yes

    Audio #2
    ID                          : 3
    Format                      : DTS
    Format/Info                 : Digital Theater Systems
    Codec ID                    : A_DTS
    Duration                    : 1 h 36 min
    Bit rate mode               : Constant
    Bit rate                    : 1 509 kb/s
    Channel(s)                  : 6 channels
    Channel layout              : C L R Ls Rs LFE
    Sampling rate               : 48.0 kHz
    Frame rate                  : 93.750 FPS (512 SPF)
    Bit depth                   : 24 bits
    Compression mode            : Lossy
    Stream size                 : 1.02 GiB (14%)
    Title                       : Ingles [CinemaniaHDD]
    Language                    : English
    Default                     : No
    Forced                      : No

    Audio #3
    ID                          : 4
    Format                      : E-AC-3
    Format/Info                 : Enhanced AC-3
    Commercial name             : Dolby Digital Plus
    Codec ID                    : A_EAC3
    Duration                    : 1 h 36 min
    Bit rate mode               : Constant
    Bit rate                    : 640 kb/s
    Channel(s)                  : 6 channels
    Channel layout              : L R C LFE Ls Rs
    Sampling rate               : 48.0 kHz
    Frame rate                  : 31.250 FPS (1536 SPF)
    Compression mode            : Lossy
    Stream size                 : 442 MiB (6%)
    Title                       : Español Latino EAC3 [CinemaniaHDD]
    Language                    : Spanish
    Service kind                : Complete Main
    Default                     : No
    Forced                      : No

    Text #1
    ID                          : 5
    ID in the original source m : 4609 (0x1201)
    Format                      : PGS
    Muxing mode                 : zlib
    Codec ID                    : S_HDMV/PGS
    Codec ID/Info               : Picture based subtitle format used on BDs/HD-DVDs
    Duration                    : 1 h 35 min
    Bit rate                    : 43.3 kb/s
    Count of elements           : 3154
    Stream size                 : 29.6 MiB (0%)
    Title                       : Español-PGS [CinemaniaHDD]
    Language                    : Spanish
    Default                     : No
    Forced                      : No
    Original source medium      : Blu-ray

    Text #2
    ID                          : 6
    ID in the original source m : 4608 (0x1200)
    Format                      : PGS
    Muxing mode                 : zlib
    Codec ID                    : S_HDMV/PGS
    Codec ID/Info               : Picture based subtitle format used on BDs/HD-DVDs
    Duration                    : 1 h 35 min
    Bit rate                    : 53.1 kb/s
    Count of elements           : 3395
    Stream size                 : 36.4 MiB (0%)
    Title                       : Ingles-PGS [CinemaniaHDD]
    Language                    : English
    Default                     : No
    Forced                      : No
    Original source medium      : Blu-ray

    Text #3
    ID                          : 7
    Format                      : UTF-8
    Codec ID                    : S_TEXT/UTF8
    Codec ID/Info               : UTF-8 Plain Text
    Duration                    : 1 h 26 min
    Bit rate                    : 0 b/s
    Count of elements           : 14
    Stream size                 : 507 Bytes (0%)
    Title                       : Forzados-SRT [CinemaniaHDD]
    Language                    : Spanish
    Default                     : Yes
    Forced                      : Yes

    Text #4
    ID                          : 8
    Format                      : UTF-8
    Codec ID                    : S_TEXT/UTF8
    Codec ID/Info               : UTF-8 Plain Text
    Duration                    : 1 h 35 min
    Bit rate                    : 71 b/s
    Count of elements           : 1680
    Stream size                 : 49.9 KiB (0%)
    Title                       : Español-SRT [CinemaniaHDD]
    Language                    : Spanish
    Default                     : No
    Forced                      : No

    Menu
    00:00:00.000                : Chapter 01
    00:06:59.252                : Chapter 02
    00:12:20.573                : Chapter 03
    00:17:52.863                : Chapter 04
    00:22:24.259                : Chapter 05
    00:29:55.168                : Chapter 06
    00:32:31.699                : Chapter 07
    00:39:46.509                : Chapter 08
    00:47:05.823                : Chapter 09
    00:51:21.495                : Chapter 10
    00:56:30.178                : Chapter 11
    01:01:58.423                : Chapter 12
    01:08:24.767                : Chapter 13
    01:12:58.248                : Chapter 14
    01:17:55.128                : Chapter 15
    01:29:52.261                : Chapter 16

  • Peso: 7.39 GiB

Sinopsis

Descargar La Dama De La Mansión (2021) PLACEBO Full HD 1080p Latino. Una mujer despistada y perezosa que trabaja de guía en una finca histórica acaba haciéndose amiga del fantasma que habita en la mansión.

Español Latino EAC3 & AC3 5.1 – Ingles DTS 5.1

Ficha técnica

Video trailer de la película

Enlaces de descarga

Rip de Bluray

Descargar La Dama De La Mansión (2021) PLACEBO Full HD 1080p Latino




Aportes de DPeliculasHDmega la pass es:dpeliculashdmega.org Aportes de CinemaniaHD la pass es:cinemaniahdd.com

Películas relacionadas

  • Playhouse (2020) PLACEBO Full HD 1080p Latino

    Playhouse (2020) PLACEBO Full HD 1080p Latino

    2020
    Playhouse (2020) PLACEBO Full HD 1080p Latino

    0.0 1h 27m 2020

    Descargar Playhouse (2020) PLACEBO Full HD 1080p Latino. El temerario Jack Travis (William Holstead)...

    Director: Toby Watts

    Género: FULL 1080p Plateadas

    Actores: William Holstead

  • The Three Stooges (2012) REMUX 1080p Latino – CMHDD

    The Three Stooges (2012) REMUX 1080p Latino – CMHDD

    2012
    The Three Stooges (2012) REMUX 1080p Latino – CMHDD

    0.0 1h 32m 2012

    Es inspirada en la serie de 190 cortos, de unos 16 minutos, 'The Three Stooges' que estrenó Columbia...

    Director: Peter Farrelly

    Género: Comedia

    Actores: William R. Brock

  • Night Teeth (2021) NF WEB-DL 1080p Latino

    Night Teeth (2021) NF WEB-DL 1080p Latino

    2021
    Night Teeth (2021) NF WEB-DL 1080p Latino

    5.0 1h 47m 2021

    Un conductor recoge a dos mujeres que pasarán una noche de fiesta. Pero, al descubrir la verdadera naturaleza...

    Director: Adam Randall

    Género: Acción

    Actores: Tracy Brotherton

  • Stuck Together (2021) NF WEB-DL 1080p Latino

    Stuck Together (2021) NF WEB-DL 1080p Latino

    2021
    Stuck Together (2021) NF WEB-DL 1080p Latino

    0.0 2h 5m 2021

    París está en cuarentena por la pandemia, y los singulares residentes de un edificio de apartamentos...

    Director: Dany Boon

    Género: Comedia

    Actores: Yvan Attal

La Dama De La Mansión (2021) PLACEBO Full HD 1080p Latino pelicula full hd, La Dama De La Mansión (2021) PLACEBO Full HD 1080p Latino mega latino, La Dama De La Mansión (2021) PLACEBO Full HD 1080p Latino 4k latino, La Dama De La Mansión (2021) PLACEBO Full HD 1080p Latino pelicula completa, La Dama De La Mansión (2021) PLACEBO Full HD 1080p Latino descargar gratis, descargar La Dama De La Mansión (2021) PLACEBO Full HD 1080p Latino pelicula latino, La Dama De La Mansión (2021) PLACEBO Full HD 1080p Latino 1 link mega, La Dama De La Mansión (2021) PLACEBO Full HD 1080p Latino 1 link google drive, La Dama De La Mansión (2021) PLACEBO Full HD 1080p Latino hd 1080p latino.
Comentarios 0