×

¿Problemas para descargar con Mozilla, EDGE? Deshabilita la opción "Abrir vinculos en una pestaña nueva" tal como lo muestra ésta imagen.

La Dama De La Mansión (2021) HD 1080p Latino

100 vistas

Información de La Dama De La Mansión (2021) HD 1080p Latino

Datos de la película

  • Calidad: 1080p
  • Audio: Español Latino AC3 5.1 WEB-DL - Ingles AC3 5.1 BLURAY
  • Subtitulos: Español Latino SRT- FORZADOS SRT
  • Resolución: 1920x1036p
  • Formato: MKV
  • Codec: H.264
  • Encoder: Melkor
  • Mediainfo: Clic para Mostrar Datos Ver
  • La Dama De La Mansion (2021) HD 1080p Latino.mkv
    Format                      : Matroska
    Format version              : Version 4
    File size                   : 3.07 GiB
    Duration                    : 1 h 36 min
    Overall bit rate            : 4 556 kb/s
    Movie name                  : Lady of the Manor (2021) CinemaniaHDD.Net
    Encoded date                : UTC 2021-10-10 04:19:43
    Writing application         : mkvmerge v56.1.0 ('My Friend') 64-bit
    Writing library             : libebml v1.4.2 + libmatroska v1.6.4
    Attachments                 : CINEMANIAHD.png

    Video
    ID                          : 1
    Format                      : AVC
    Format/Info                 : Advanced Video Codec
    Format profile              : High@L4.1
    Format settings             : CABAC / 4 Ref Frames
    Format settings, CABAC      : Yes
    Format settings, Reference  : 4 frames
    Codec ID                    : V_MPEG4/ISO/AVC
    Duration                    : 1 h 36 min
    Bit rate                    : 3 500 kb/s
    Width                       : 1 920 pixels
    Height                      : 1 036 pixels
    Display aspect ratio        : 1.85:1
    Frame rate mode             : Constant
    Frame rate                  : 23.976 (24000/1001) FPS
    Color space                 : YUV
    Chroma subsampling          : 4:2:0
    Bit depth                   : 8 bits
    Scan type                   : Progressive
    Bits/(Pixel*Frame)          : 0.073
    Stream size                 : 2.34 GiB (76%)
    Title                       : HD1080p [CinemaniaHDD]
    Writing library             : x264 core 163 r3059 b684ebe0
    Encoding settings           : cabac=1 / ref=4 / deblock=1:-1:-1 / analyse=0x3:0x133 / me=umh / subme=9 / psy=1 / psy_rd=1.00:0.15 / mixed_ref=1 / me_range=16 / chroma_me=1 / trellis=2 / 8x8dct=1 / cqm=0 / deadzone=21,11 / fast_pskip=1 / chroma_qp_offset=-3 / threads=24 / lookahead_threads=2 / sliced_threads=0 / nr=0 / decimate=1 / interlaced=0 / bluray_compat=0 / constrained_intra=0 / bframes=3 / b_pyramid=2 / b_adapt=2 / b_bias=0 / direct=3 / weightb=1 / open_gop=0 / weightp=2 / keyint=240 / keyint_min=24 / scenecut=40 / intra_refresh=0 / rc_lookahead=60 / rc=abr / mbtree=1 / bitrate=3500 / ratetol=1.0 / qcomp=0.60 / qpmin=0 / qpmax=69 / qpstep=4 / vbv_maxrate=62500 / vbv_bufsize=78125 / nal_hrd=none / filler=0 / ip_ratio=1.40 / aq=1:1.00
    Default                     : Yes
    Forced                      : Yes
    Color range                 : Limited
    Color primaries             : BT.709
    Transfer characteristics    : BT.709
    Matrix coefficients         : BT.709

    Audio #1
    ID                          : 2
    Format                      : AC-3
    Format/Info                 : Audio Coding 3
    Commercial name             : Dolby Digital
    Codec ID                    : A_AC3
    Duration                    : 1 h 36 min
    Bit rate mode               : Constant
    Bit rate                    : 640 kb/s
    Channel(s)                  : 6 channels
    Channel layout              : L R C LFE Ls Rs
    Sampling rate               : 48.0 kHz
    Frame rate                  : 31.250 FPS (1536 SPF)
    Compression mode            : Lossy
    Delay relative to video     : -5 ms
    Stream size                 : 442 MiB (14%)
    Title                       : Español Latino [CinemaniaHDD]
    Language                    : Spanish
    Service kind                : Complete Main
    Default                     : Yes
    Forced                      : Yes

    Audio #2
    ID                          : 3
    Format                      : AC-3
    Format/Info                 : Audio Coding 3
    Commercial name             : Dolby Digital
    Codec ID                    : A_AC3
    Duration                    : 1 h 36 min
    Bit rate mode               : Constant
    Bit rate                    : 448 kb/s
    Channel(s)                  : 6 channels
    Channel layout              : L R C LFE Ls Rs
    Sampling rate               : 48.0 kHz
    Frame rate                  : 31.250 FPS (1536 SPF)
    Compression mode            : Lossy
    Delay relative to video     : -5 ms
    Stream size                 : 309 MiB (10%)
    Title                       : Ingles [CinemaniaHDD]
    Language                    : English
    Service kind                : Complete Main
    Default                     : No
    Forced                      : No

    Text #1
    ID                          : 4
    Format                      : UTF-8
    Codec ID                    : S_TEXT/UTF8
    Codec ID/Info               : UTF-8 Plain Text
    Duration                    : 1 h 26 min
    Bit rate                    : 0 b/s
    Count of elements           : 14
    Stream size                 : 507 Bytes (0%)
    Title                       : Forzados-SRT [CinemaniaHDD]
    Language                    : Spanish
    Default                     : Yes
    Forced                      : Yes

    Text #2
    ID                          : 5
    Format                      : UTF-8
    Codec ID                    : S_TEXT/UTF8
    Codec ID/Info               : UTF-8 Plain Text
    Duration                    : 1 h 35 min
    Bit rate                    : 71 b/s
    Count of elements           : 1680
    Stream size                 : 49.9 KiB (0%)
    Title                       : Español-SRT [CinemaniaHDD]
    Language                    : Spanish
    Default                     : No
    Forced                      : No

    Text #3
    ID                          : 6
    Format                      : UTF-8
    Codec ID                    : S_TEXT/UTF8
    Codec ID/Info               : UTF-8 Plain Text
    Duration                    : 1 h 35 min
    Bit rate                    : 81 b/s
    Count of elements           : 1613
    Stream size                 : 57.1 KiB (0%)
    Title                       : Ingles-SRT [CinemaniaHDD]
    Default                     : No
    Forced                      : No

    Menu
    00:00:00.000                : Chapter 01
    00:06:59.252                : Chapter 02
    00:12:20.573                : Chapter 03
    00:17:52.863                : Chapter 04
    00:22:24.259                : Chapter 05
    00:29:55.168                : Chapter 06
    00:32:31.699                : Chapter 07
    00:39:46.509                : Chapter 08
    00:47:05.823                : Chapter 09
    00:51:21.495                : Chapter 10
    00:56:30.178                : Chapter 11
    01:01:58.423                : Chapter 12
    01:08:24.767                : Chapter 13
    01:12:58.248                : Chapter 14
    01:17:55.128                : Chapter 15
    01:29:52.261                : Chapter 16

  • Peso: 3.07 GiB

Sinopsis

Descargar La Dama De La Mansión (2021) HD 1080p Latino. Una mujer despistada y perezosa que trabaja de guía en una finca histórica acaba haciéndose amiga del fantasma que habita en la mansión.

Ficha técnica

Video trailer de la película

Enlaces de descarga

Rip de Bluray

Descargar La Dama De La Mansión (2021) HD 1080p Latino




Aportes de DPeliculasHDmega la pass es:dpeliculashdmega.org Aportes de CinemaniaHD la pass es:cinemaniahdd.com
Guardado en : Comedia , Fantasía , HD 1080p

Películas relacionadas

  • Hot Summer Nights (2017) 4K-SDR WEB-DL 2160p Latino

    Hot Summer Nights (2017) 4K-SDR WEB-DL 2160p Latino

    2018
    Hot Summer Nights (2017) 4K-SDR WEB-DL 2160p Latino

    1h 47m 2018

    Daniel es un tímido adolescente que comienza a vender marihuana, entrando en un mundo tentador pero...

    Director: Stephen W. Moore

    Género: 4K HDR

    Actores: Zack Shires

  • Hot Summer Nights (2017) AMZN WEB-DL 1080p Latino

    Hot Summer Nights (2017) AMZN WEB-DL 1080p Latino

    2018
    Hot Summer Nights (2017) AMZN WEB-DL 1080p Latino

    1h 47m 2018

    Daniel es un tímido adolescente que comienza a vender marihuana, entrando en un mundo tentador pero...

    Director: Stephen W. Moore

    Género: Comedia

    Actores: Zack Shires

  • Wire Room (2022) HD 1080p Latino

    Wire Room (2022) HD 1080p Latino

    2022
    Wire Room (2022) HD 1080p Latino

    1h 37m 2022

    Descargar Wire Room (2022) HD 1080p Latino. Mientras está de servicio en la sala de cables, un agente...

    Director: Matt Eskandari

    Género: Acción

    Actores: Texas Battle

descargar La Dama De La Mansión (2021) HD 1080p Latino 1080p 1080p gratis, La Dama De La Mansión (2021) HD 1080p Latino 1080p mega 1 link, La Dama De La Mansión (2021) HD 1080p Latino 1080p pelicula completa, descargar La Dama De La Mansión (2021) HD 1080p Latino 1080p gratis en mega.

La Dama De La Mansión (2021) HD 1080p Latino pelicula full hd, La Dama De La Mansión (2021) HD 1080p Latino mega latino, La Dama De La Mansión (2021) HD 1080p Latino 4k latino, La Dama De La Mansión (2021) HD 1080p Latino pelicula completa, La Dama De La Mansión (2021) HD 1080p Latino descargar gratis, descargar La Dama De La Mansión (2021) HD 1080p Latino pelicula latino, La Dama De La Mansión (2021) HD 1080p Latino 1 link mega, La Dama De La Mansión (2021) HD 1080p Latino 1 link google drive, La Dama De La Mansión (2021) HD 1080p Latino hd 1080p latino.
Comentarios 0