×

¿Problemas para descargar con Mozilla, EDGE? Deshabilita la opción "Abrir vinculos en una pestaña nueva" tal como lo muestra ésta imagen.

La Cruzada (2022) Temporada 1 WEB-DL 1080p Latino

454 vistas

Información de La Cruzada (2022) Temporada 1 WEB-DL 1080p Latino

Datos de la película

  • Calidad: WEBDL
  • Audio: Se especifica abajo de la Sinopsis
  • Subtitulos: Español Latino SRT - Ingles SRT
  • Resolución: 1920x1080p
  • Formato: MKV
  • Codec: H.264
  • Encoder: CinemaniaHD
  • Mediainfo: Clic para Mostrar Datos Ver
  • The Quest S01E01 (2022) D+ Web-DL 1080p Latino.mkv
    Format                      : Matroska
    Format version              : Version 4
    File size                   : 2.21 GiB
    Duration                    : 45 min 22 s
    Overall bit rate mode       : Variable
    Overall bit rate            : 6 977 kb/s
    Movie name                  : The Quest S01E01 - Strangers Arrive CinemaniaHDD.Net
    Encoded date                : UTC 2022-05-12 04:41:09
    Writing application         : mkvmerge v56.1.0 ('My Friend') 64-bit
    Writing library             : libebml v1.4.2 + libmatroska v1.6.4
    Attachments                 : CINEMANIAHD.png

    Video
    ID                          : 1
    Format                      : AVC
    Format/Info                 : Advanced Video Codec
    Format profile              : High@L4
    Format settings             : CABAC / 4 Ref Frames
    Format settings, CABAC      : Yes
    Format settings, Reference  : 4 frames
    Codec ID                    : V_MPEG4/ISO/AVC
    Duration                    : 45 min 22 s
    Bit rate mode               : Variable
    Bit rate                    : 6 462 kb/s
    Maximum bit rate            : 12.7 Mb/s
    Width                       : 1 920 pixels
    Height                      : 1 080 pixels
    Display aspect ratio        : 16:9
    Frame rate mode             : Constant
    Frame rate                  : 23.976 (24000/1001) FPS
    Color space                 : YUV
    Chroma subsampling          : 4:2:0
    Bit depth                   : 8 bits
    Scan type                   : Progressive
    Bits/(Pixel*Frame)          : 0.130
    Stream size                 : 2.05 GiB (93%)
    Title                       : WEB HD1080p [CinemaniaHDD]
    Language                    : English
    Default                     : Yes
    Forced                      : No
    Color range                 : Limited
    Color primaries             : BT.709
    Transfer characteristics    : BT.709
    Matrix coefficients         : BT.709

    Audio #1
    ID                          : 2
    Format                      : E-AC-3
    Format/Info                 : Enhanced AC-3
    Commercial name             : Dolby Digital Plus
    Codec ID                    : A_EAC3
    Duration                    : 45 min 22 s
    Bit rate mode               : Constant
    Bit rate                    : 256 kb/s
    Channel(s)                  : 6 channels
    Channel layout              : L R C LFE Ls Rs
    Sampling rate               : 48.0 kHz
    Frame rate                  : 31.250 FPS (1536 SPF)
    Compression mode            : Lossy
    Stream size                 : 83.1 MiB (4%)
    Title                       : Español Latino [CinemaniaHDD]
    Language                    : Spanish
    Service kind                : Complete Main
    Default                     : Yes
    Forced                      : No

    Audio #2
    ID                          : 3
    Format                      : E-AC-3
    Format/Info                 : Enhanced AC-3
    Commercial name             : Dolby Digital Plus
    Codec ID                    : A_EAC3
    Duration                    : 45 min 22 s
    Bit rate mode               : Constant
    Bit rate                    : 256 kb/s
    Channel(s)                  : 6 channels
    Channel layout              : L R C LFE Ls Rs
    Sampling rate               : 48.0 kHz
    Frame rate                  : 31.250 FPS (1536 SPF)
    Compression mode            : Lossy
    Stream size                 : 83.1 MiB (4%)
    Title                       : Ingles [CinemaniaHDD]
    Language                    : English
    Service kind                : Complete Main
    Default                     : No
    Forced                      : No

    Text #1
    ID                          : 4
    Format                      : UTF-8
    Codec ID                    : S_TEXT/UTF8
    Codec ID/Info               : UTF-8 Plain Text
    Duration                    : 45 min 14 s
    Bit rate                    : 0 b/s
    Count of elements           : 8
    Stream size                 : 238 Bytes (0%)
    Title                       : Forzados-SRT [CinemaniaHDD]
    Language                    : Spanish
    Default                     : Yes
    Forced                      : No

    Text #2
    ID                          : 5
    Format                      : UTF-8
    Codec ID                    : S_TEXT/UTF8
    Codec ID/Info               : UTF-8 Plain Text
    Duration                    : 45 min 14 s
    Bit rate                    : 57 b/s
    Count of elements           : 557
    Stream size                 : 19.1 KiB (0%)
    Title                       : Español-SRT [CinemaniaHDD]
    Language                    : Spanish
    Default                     : No
    Forced                      : No

    Text #3
    ID                          : 6
    Format                      : UTF-8
    Codec ID                    : S_TEXT/UTF8
    Codec ID/Info               : UTF-8 Plain Text
    Duration                    : 44 min 10 s
    Bit rate                    : 60 b/s
    Count of elements           : 557
    Stream size                 : 19.6 KiB (0%)
    Title                       : Ingles-SRT [CinemaniaHDD]
    Language                    : English
    Default                     : No
    Forced                      : No

  • Peso: 1.86 GiB - 2.24 GiB Aprox. C/U | 16.7 GiB Total.

Sinopsis

Descargar La Cruzada (2022) Temporada 1 WEB-DL 1080p Latino. «La cruzada» es una innovadora serie de competencia inmersiva que pone a ocho adolescentes de la vida real en el mundo ficticio de Everealm, donde deben salvar un reino cumpliendo una antigua profecía. A lo largo de la serie de ocho episodios, estos héroes se ven inmersos en un mundo de fantasía que cobra vida, con todo y un castillo, miembros de la realeza, parcas etéreas y una hechicera impulsada por la destrucción y el poder.

Audio Español Latino EAC3 5.1 D+ – Ingles EAC3 5.1 D+
8/8 Capitulos Disponibles!!

Ficha técnica

Video trailer de la película

Enlaces de descarga

Rip de Bluray

Descargar La Cruzada (2022) Temporada 1 WEB-DL 1080p Latino




Aportes de DPeliculasHDmega la pass es:dpeliculashdmega.org Aportes de CinemaniaHD la pass es:cinemaniahdd.com

Películas relacionadas

descargar La Cruzada (2022) Temporada 1 WEB-DL 1080p Latino WEBDL 1080p gratis, La Cruzada (2022) Temporada 1 WEB-DL 1080p Latino WEBDL mega 1 link, La Cruzada (2022) Temporada 1 WEB-DL 1080p Latino WEBDL serie completa, descargar La Cruzada (2022) Temporada 1 WEB-DL 1080p Latino WEBDL gratis en mega.

La Cruzada (2022) Temporada 1 WEB-DL 1080p Latino pelicula full hd, La Cruzada (2022) Temporada 1 WEB-DL 1080p Latino mega latino, La Cruzada (2022) Temporada 1 WEB-DL 1080p Latino 4k latino, La Cruzada (2022) Temporada 1 WEB-DL 1080p Latino pelicula completa, La Cruzada (2022) Temporada 1 WEB-DL 1080p Latino descargar gratis, descargar La Cruzada (2022) Temporada 1 WEB-DL 1080p Latino pelicula latino, La Cruzada (2022) Temporada 1 WEB-DL 1080p Latino 1 link mega, La Cruzada (2022) Temporada 1 WEB-DL 1080p Latino 1 link google drive, La Cruzada (2022) Temporada 1 WEB-DL 1080p Latino hd 1080p latino.
Comentarios 0