×

¿Problemas para descargar con Mozilla, EDGE? Deshabilita la opción "Abrir vinculos en una pestaña nueva" tal como lo muestra ésta imagen.

La Crónica Francesa (2021) PLACEBO Full HD 1080p Castellano

457 vistas

Información de La Crónica Francesa (2021) PLACEBO Full HD 1080p Castellano

Datos de la película

  • Calidad: Full 1080p
  • Audio: Se especifica abajo de la Sinopsis
  • Subtitulos: Español Latino PGS - Ingles PGS
  • Resolución: 1920x1080p
  • Formato: MKV
  • Codec: H.264
  • Encoder: Melkor
  • Mediainfo: Clic para Mostrar Datos Ver
  • La Cronica Francesa (2021) PLACEBO 1080p Cast.mkv
    Format                      : Matroska
    Format version              : Version 4
    File size                   : 9.40 GiB
    Duration                    : 1 h 47 min
    Overall bit rate            : 12.5 Mb/s
    Movie name                  : The French Dispatch (2021) CinemaniaHDD.Net
    Encoded date                : UTC 2022-02-16 05:01:42
    Writing application         : mkvmerge v56.1.0 ('My Friend') 64-bit
    Writing library             : libebml v1.4.2 + libmatroska v1.6.4
    Attachments                 : CINEMANIAHD.png

    Video
    ID                          : 1
    Format                      : AVC
    Format/Info                 : Advanced Video Codec
    Format profile              : High@L4.1
    Format settings             : CABAC / 4 Ref Frames
    Format settings, CABAC      : Yes
    Format settings, Reference  : 4 frames
    Codec ID                    : V_MPEG4/ISO/AVC
    Duration                    : 1 h 47 min
    Bit rate                    : 10.5 Mb/s
    Width                       : 1 920 pixels
    Height                      : 1 080 pixels
    Display aspect ratio        : 16:9
    Frame rate mode             : Constant
    Frame rate                  : 23.976 (24000/1001) FPS
    Color space                 : YUV
    Chroma subsampling          : 4:2:0
    Bit depth                   : 8 bits
    Scan type                   : Progressive
    Bits/(Pixel*Frame)          : 0.212
    Stream size                 : 7.91 GiB (84%)
    Title                       : Full HD1080p [CinemaniaHDD]
    Writing library             : x264 core 163 r3059 b684ebe0
    Encoding settings           : cabac=1 / ref=4 / deblock=1:0:0 / analyse=0x3:0x133 / me=tesa / subme=11 / psy=1 / psy_rd=1.00:0.00 / mixed_ref=1 / me_range=24 / chroma_me=1 / trellis=2 / 8x8dct=1 / cqm=0 / deadzone=21,11 / fast_pskip=0 / chroma_qp_offset=-2 / threads=24 / lookahead_threads=6 / sliced_threads=0 / nr=0 / decimate=1 / interlaced=0 / bluray_compat=0 / constrained_intra=0 / bframes=16 / b_pyramid=2 / b_adapt=2 / b_bias=0 / direct=3 / weightb=1 / open_gop=0 / weightp=2 / keyint=240 / keyint_min=24 / scenecut=40 / intra_refresh=0 / rc_lookahead=60 / rc=crf / mbtree=1 / crf=19.0 / qcomp=0.60 / qpmin=0 / qpmax=69 / qpstep=4 / vbv_maxrate=62500 / vbv_bufsize=78125 / crf_max=0.0 / nal_hrd=none / filler=0 / ip_ratio=1.40 / aq=1:1.00
    Default                     : Yes
    Forced                      : Yes
    Color range                 : Limited
    Color primaries             : BT.709
    Transfer characteristics    : BT.709
    Matrix coefficients         : BT.709

    Audio #1
    ID                          : 2
    Format                      : AC-3
    Format/Info                 : Audio Coding 3
    Commercial name             : Dolby Digital
    Codec ID                    : A_AC3
    Duration                    : 1 h 47 min
    Bit rate mode               : Constant
    Bit rate                    : 448 kb/s
    Channel(s)                  : 6 channels
    Channel layout              : L R C LFE Ls Rs
    Sampling rate               : 48.0 kHz
    Frame rate                  : 31.250 FPS (1536 SPF)
    Compression mode            : Lossy
    Delay relative to video     : 35 ms
    Stream size                 : 345 MiB (4%)
    Title                       : Español Castellano [CinemaniaHDD]
    Language                    : Spanish
    Service kind                : Complete Main
    Default                     : Yes
    Forced                      : Yes

    Audio #2
    ID                          : 3
    Format                      : DTS
    Format/Info                 : Digital Theater Systems
    Codec ID                    : A_DTS
    Duration                    : 1 h 47 min
    Bit rate mode               : Constant
    Bit rate                    : 1 509 kb/s
    Channel(s)                  : 6 channels
    Channel layout              : C L R Ls Rs LFE
    Sampling rate               : 48.0 kHz
    Frame rate                  : 93.750 FPS (512 SPF)
    Bit depth                   : 24 bits
    Compression mode            : Lossy
    Stream size                 : 1.13 GiB (12%)
    Title                       : Ingles [CinemaniaHDD]
    Language                    : English
    Default                     : No
    Forced                      : No

    Text #1
    ID                          : 4
    Format                      : PGS
    Muxing mode                 : zlib
    Codec ID                    : S_HDMV/PGS
    Codec ID/Info               : Picture based subtitle format used on BDs/HD-DVDs
    Duration                    : 1 h 44 min
    Bit rate                    : 33.9 kb/s
    Count of elements           : 3072
    Stream size                 : 25.4 MiB (0%)
    Title                       : Español-PGS [CinemaniaHDD]
    Language                    : Spanish
    Default                     : No
    Forced                      : No

    Text #2
    ID                          : 5
    Format                      : PGS
    Muxing mode                 : zlib
    Codec ID                    : S_HDMV/PGS
    Codec ID/Info               : Picture based subtitle format used on BDs/HD-DVDs
    Duration                    : 1 h 42 min
    Bit rate                    : 35.8 kb/s
    Count of elements           : 3350
    Stream size                 : 26.2 MiB (0%)
    Title                       : Ingles-PGS [CinemaniaHDD]
    Language                    : English
    Default                     : No
    Forced                      : No

    Text #3
    ID                          : 6
    Format                      : UTF-8
    Codec ID                    : S_TEXT/UTF8
    Codec ID/Info               : UTF-8 Plain Text
    Duration                    : 1 h 44 min
    Bit rate                    : 1 b/s
    Count of elements           : 26
    Stream size                 : 870 Bytes (0%)
    Title                       : Forzados-SRT [CinemaniaHDD]
    Language                    : Spanish
    Default                     : Yes
    Forced                      : Yes

    Text #4
    ID                          : 7
    Format                      : UTF-8
    Codec ID                    : S_TEXT/UTF8
    Codec ID/Info               : UTF-8 Plain Text
    Duration                    : 1 h 44 min
    Bit rate                    : 83 b/s
    Count of elements           : 1533
    Stream size                 : 64.0 KiB (0%)
    Title                       : Español-SRT [CinemaniaHDD]
    Language                    : Spanish
    Default                     : No
    Forced                      : No

    Menu
    00:00:00.000                : Chapter 01
    00:06:08.659                : Chapter 02
    00:10:22.371                : Chapter 03
    00:17:03.439                : Chapter 04
    00:21:19.152                : Chapter 05
    00:26:49.941                : Chapter 06
    00:30:55.728                : Chapter 07
    00:37:48.224                : Chapter 08
    00:43:52.629                : Chapter 09
    00:49:03.398                : Chapter 10
    00:58:14.824                : Chapter 11
    01:04:48.217                : Chapter 12
    01:09:54.982                : Chapter 13
    01:20:26.363                : Chapter 14
    01:28:28.636                : Chapter 15
    01:34:26.285                : Chapter 16
    01:40:58.593                : Chapter 17
    01:43:16.731                : Chapter 18

  • Peso: 9.40 GiB

Sinopsis

Descargar La Crónica Francesa (2021) PLACEBO Full HD 1080p Castellano. Una carta de amor al mundo del periodismo, ambientada en el contexto de la redacción de un periódico americano en el París del siglo XX, con tres historias interconectadas entre sí.

Español Castellano AC3 5.1 WebDL – Ingles DTS 5.1 BD

Ficha técnica

Video trailer de la película

Enlaces de descarga

Rip de Bluray

Descargar La Crónica Francesa (2021) PLACEBO Full HD 1080p Castellano




Aportes de DPeliculasHDmega la pass es:dpeliculashdmega.org Aportes de CinemaniaHD la pass es:cinemaniahdd.com

Películas relacionadas

descargar La Crónica Francesa (2021) PLACEBO Full HD 1080p Castellano Full 1080p 1080p gratis, La Crónica Francesa (2021) PLACEBO Full HD 1080p Castellano Full 1080p mega 1 link, La Crónica Francesa (2021) PLACEBO Full HD 1080p Castellano Full 1080p pelicula completa, descargar La Crónica Francesa (2021) PLACEBO Full HD 1080p Castellano Full 1080p gratis en mega.

La Crónica Francesa (2021) PLACEBO Full HD 1080p Castellano pelicula full hd, La Crónica Francesa (2021) PLACEBO Full HD 1080p Castellano mega latino, La Crónica Francesa (2021) PLACEBO Full HD 1080p Castellano 4k latino, La Crónica Francesa (2021) PLACEBO Full HD 1080p Castellano pelicula completa, La Crónica Francesa (2021) PLACEBO Full HD 1080p Castellano descargar gratis, descargar La Crónica Francesa (2021) PLACEBO Full HD 1080p Castellano pelicula latino, La Crónica Francesa (2021) PLACEBO Full HD 1080p Castellano 1 link mega, La Crónica Francesa (2021) PLACEBO Full HD 1080p Castellano 1 link google drive, La Crónica Francesa (2021) PLACEBO Full HD 1080p Castellano hd 1080p latino.
Comentarios 0