×

¿Problemas para descargar con Mozilla, EDGE? Deshabilita la opción "Abrir vinculos en una pestaña nueva" tal como lo muestra ésta imagen.

La Cosa Del Pantano (2019) Temporada 1 AMZN WEB-DL 1080p Latino

8.239 vistas

Información de La Cosa Del Pantano (2019) Temporada 1 AMZN WEB-DL 1080p Latino

Datos de la película

  • Calidad: WEBDL
  • Audio: Español Latino AC3 2.0 WEB-DL - Ingles AC3 5.1 WEB-DL
  • Subtitulos: Español Latino SRT- FORZADOS SRT
  • Resolución: 1920x1080
  • Formato: MKV
  • Codec: H.264
  • Encoder: cinemaniahdd
  • Mediainfo: Clic para Mostrar Datos Ver
  • La Cosa Del Pantano T01E10 AMZN WEB-DL 1080p Latino.mkv
    Format                      : Matroska
    Format version              : Version 4
    File size                   : 2.60 GiB
    Duration                    : 53 min 1 s
    Overall bit rate            : 7 024 kb/s
    Movie name                  : La Cosa Del Pantano T01E10 - CinemaniaHDD.Net
    Encoded date                : UTC 2020-03-28 01:09:22
    Writing application         : mkvmerge v42.0.0 ('Overtime') 64-bit
    Writing library             : libebml v1.3.10 + libmatroska v1.5.2

    Video
    ID                          : 1
    Format                      : AVC
    Format/Info                 : Advanced Video Codec
    Format profile              : High@L4
    Format settings             : CABAC / 4 Ref Frames
    Format settings, CABAC      : Yes
    Format settings, ReFrames   : 4 frames
    Codec ID                    : V_MPEG4/ISO/AVC
    Duration                    : 53 min 1 s
    Bit rate mode               : Constant
    Bit rate                    : 6 126 kb/s
    Nominal bit rate            : 10 000 kb/s
    Width                       : 1 920 pixels
    Height                      : 1 080 pixels
    Display aspect ratio        : 16:9
    Frame rate mode             : Constant
    Frame rate                  : 23.976 (24000/1001) FPS
    Color space                 : YUV
    Chroma subsampling          : 4:2:0
    Bit depth                   : 8 bits
    Scan type                   : Progressive
    Bits/(Pixel*Frame)          : 0.123
    Stream size                 : 2.27 GiB (87%)
    Title                       : CinemaniaHDD
    Default                     : Yes
    Forced                      : No
    Color range                 : Limited
    Color primaries             : BT.709
    Transfer characteristics    : BT.709
    Matrix coefficients         : BT.709

    Audio #1
    ID                          : 2
    Format                      : AC-3
    Format/Info                 : Audio Coding 3
    Commercial name             : Dolby Digital
    Codec ID                    : A_AC3
    Duration                    : 53 min 1 s
    Bit rate mode               : Constant
    Bit rate                    : 256 kb/s
    Channel(s)                  : 2 channels
    Channel layout              : L R
    Sampling rate               : 48.0 kHz
    Frame rate                  : 31.250 FPS (1536 SPF)
    Bit depth                   : 16 bits
    Compression mode            : Lossy
    Stream size                 : 97.1 MiB (4%)
    Title                       : Español latino [CinemaniaHDD]
    Language                    : Spanish
    Service kind                : Complete Main
    Default                     : Yes
    Forced                      : No

    Audio #2
    ID                          : 3
    Format                      : E-AC-3
    Format/Info                 : Enhanced AC-3
    Commercial name             : Dolby Digital Plus
    Codec ID                    : A_EAC3
    Duration                    : 53 min 1 s
    Bit rate mode               : Constant
    Bit rate                    : 640 kb/s
    Channel(s)                  : 6 channels
    Channel layout              : L R C LFE Ls Rs
    Sampling rate               : 48.0 kHz
    Frame rate                  : 31.250 FPS (1536 SPF)
    Compression mode            : Lossy
    Stream size                 : 243 MiB (9%)
    Title                       : Inglés [CinemaniaHDD]
    Language                    : English
    Service kind                : Complete Main
    Default                     : No
    Forced                      : No

    Text #1
    ID                          : 4
    Format                      : UTF-8
    Codec ID                    : S_TEXT/UTF8
    Codec ID/Info               : UTF-8 Plain Text
    Duration                    : 23 min 14 s
    Bit rate                    : 0 b/s
    Count of elements           : 4
    Stream size                 : 90.0 Bytes (0%)
    Title                       : Forzados [CinemaniaHDD]
    Language                    : Spanish
    Default                     : Yes
    Forced                      : Yes

    Text #2
    ID                          : 5
    Format                      : UTF-8
    Codec ID                    : S_TEXT/UTF8
    Codec ID/Info               : UTF-8 Plain Text
    Duration                    : 52 min 22 s
    Bit rate                    : 39 b/s
    Count of elements           : 487
    Stream size                 : 15.3 KiB (0%)
    Title                       : Español latino [CinemaniaHDD]
    Language                    : Spanish
    Default                     : No
    Forced                      : No

    Text #3
    ID                          : 6
    Format                      : UTF-8
    Codec ID                    : S_TEXT/UTF8
    Codec ID/Info               : UTF-8 Plain Text
    Duration                    : 52 min 34 s
    Bit rate                    : 51 b/s
    Count of elements           : 754
    Stream size                 : 19.9 KiB (0%)
    Title                       : Inglés [CinemaniaHDD]
    Language                    : English
    Default                     : No
    Forced                      : No

    Menu
    00:00:00.000                : en:Studio Logo
    00:00:19.000                : en:Previously On
    00:01:21.000                : en:Scene 3
    00:04:30.000                : en:Opening Credits
    00:05:30.000                : en:Scene 5
    00:07:35.000                : en:Scene 6
    00:09:21.000                : en:Scene 7
    00:11:26.000                : en:Scene 8
    00:14:55.000                : en:Scene 9
    00:16:52.000                : en:Scene 10
    00:19:43.000                : en:Scene 11
    00:23:38.000                : en:Scene 12
    00:29:14.000                : en:Scene 13
    00:32:10.000                : en:Scene 14
    00:35:42.000                : en:Scene 15
    00:36:32.000                : en:Scene 16
    00:42:38.000                : en:Scene 17
    00:49:22.000                : en:End Credits

     

  • Peso: 2.72 GiB --- FINAL DE TEMPORADA

Sinopsis

James Wan presenta un aspecto aterrador del género de superhéroes con esta versión del cómic de DC: Swamp Thing – La Cosa Del Pantano. Con un estilo gótico sureño, la miniserie sigue a un monstruoso ser con poder sobre las plantas que debe aceptar su propia naturaleza para luchar contra una serie de personajes corrompidos por las fuerzas oscuras que acechan al pueblo de Marais.

10 EPISODIOS AGREGADOS

FINAL DE TEMPORADA

Ficha técnica

Video trailer de la película

Enlaces de descarga

Rip de Bluray

Descargar La Cosa Del Pantano (2019) Temporada 1 AMZN WEB-DL 1080p Latino




Aportes de DPeliculasHDmega la pass es:dpeliculashdmega.org Aportes de CinemaniaHD la pass es:cinemaniahdd.com
Guardado en : Drama , HBO , Misterio , Sci-Fi & Fantasy , Series

Películas relacionadas

  • Stromboli (2022) NF WEB-DL 1080p Latino

    Stromboli (2022) NF WEB-DL 1080p Latino

    2022
    Stromboli (2022) NF WEB-DL 1080p Latino

    1h 26m 2022

    Descargar Stromboli (2022) NF WEB-DL 1080p Latino. Sara, una mujer que se ha divorciado recientemente,...

    Director: Michiel van Erp

    Género: Drama

    Actores: Tim McInnerny

  • Infiesto (2023) NF WEB-DL 1080p Castellano

    Infiesto (2023) NF WEB-DL 1080p Castellano

    2023
    Infiesto (2023) NF WEB-DL 1080p Castellano

    1h 36m 2023

    Descargar Infiesto (2023) NF WEB-DL 1080p Castellano. Mientras el coronavirus trastoca sus vidas, dos...

    Director: Patxi Amezcua

    Género: Crimen

    Actores: Luis Zahera

  • Espiritu Libre (2023) NF WEB-DL 1080p Latino

    Espiritu Libre (2023) NF WEB-DL 1080p Latino

    2023
    Espiritu Libre (2023) NF WEB-DL 1080p Latino

    1h 49m 2023

    Descargar Espiritu Libre (2023) NF WEB-DL 1080p Latino. La película se basa en la increíble historia...

    Director: Sarah Spillane

    Género: Aventura

    Actores: Vivien Turner

descargar La Cosa Del Pantano (2019) Temporada 1 AMZN WEB-DL 1080p Latino WEBDL 1080p gratis, La Cosa Del Pantano (2019) Temporada 1 AMZN WEB-DL 1080p Latino WEBDL mega 1 link, La Cosa Del Pantano (2019) Temporada 1 AMZN WEB-DL 1080p Latino WEBDL serie completa, descargar La Cosa Del Pantano (2019) Temporada 1 AMZN WEB-DL 1080p Latino WEBDL gratis en mega.

La Cosa Del Pantano (2019) Temporada 1 AMZN WEB-DL 1080p Latino pelicula full hd, La Cosa Del Pantano (2019) Temporada 1 AMZN WEB-DL 1080p Latino mega latino, La Cosa Del Pantano (2019) Temporada 1 AMZN WEB-DL 1080p Latino 4k latino, La Cosa Del Pantano (2019) Temporada 1 AMZN WEB-DL 1080p Latino pelicula completa, La Cosa Del Pantano (2019) Temporada 1 AMZN WEB-DL 1080p Latino descargar gratis, descargar La Cosa Del Pantano (2019) Temporada 1 AMZN WEB-DL 1080p Latino pelicula latino, La Cosa Del Pantano (2019) Temporada 1 AMZN WEB-DL 1080p Latino 1 link mega, La Cosa Del Pantano (2019) Temporada 1 AMZN WEB-DL 1080p Latino 1 link google drive, La Cosa Del Pantano (2019) Temporada 1 AMZN WEB-DL 1080p Latino hd 1080p latino.
Comentarios 8
  • Jose_E.T. - 28 marzo, 2020

    Creo que aquí termina ¿no? Muchas gracias por esta serie…

    • CinemaniaHDD - 28 marzo, 2020

      Si, ya termino la season 1

  • Mrurko - 15 marzo, 2020

    hola cuando queres descargar el capitulo 8 en mega te pasa a un link de zombis 2

    • CinemaniaHDD - 15 marzo, 2020

      Hola, gracias por avisar
      ya esta solucionado

  • Omar Enrique - 07 marzo, 2020

    Muchas gracias, muy buena serie, se les aplaude!

  • Comorales - 23 febrero, 2020

    Saludos.
    Los capítulos 3, 4 y 5 sólo pesan 400 Mb
    Está correcto eso?

    • CinemaniaHDD - 25 febrero, 2020

      yo veo que pesan mas que eso

  • freddy - 18 febrero, 2020

    Gracias por compartir