×

¿Problemas para descargar con Mozilla, EDGE? Deshabilita la opción "Abrir vinculos en una pestaña nueva" tal como lo muestra ésta imagen.

La corresponsal (2018) 1080p Latino

604 vistas

Información de La corresponsal (2018) 1080p Latino

Datos de la película

  • Calidad: 1080p
  • Audio: Español Latino AC3 2.0 Capturado - Ingles AC3 5.1 BLURAY
  • Subtitulos: Español Latino SRT
  • Resolución: 1902x808
  • Formato: MKV
  • Codec: H.264
  • Encoder: cinemaniahd
  • Mediainfo: Clic para Mostrar Datos Ver
  • A Private War (2018) 1080p Latino.mkv
    Format                      : Matroska
    Format version              : Version 4
    File size                   : 3.17 GiB
    Duration                    : 1 h 50 min
    Overall bit rate            : 4 109 kb/s
    Movie name                  : A Private War (2018) 1080p Latino
    Encoded date                : UTC 2019-11-06 18:32:57
    Writing application         : mkvmerge v38.0.0 ('The Silent Type') 64-bit
    Writing library             : libebml v1.3.9 + libmatroska v1.5.2 / Lavf58.20.100

    Video
    ID                          : 1
    Format                      : AVC
    Format/Info                 : Advanced Video Codec
    Format profile              : Main@L4
    Format settings             : CABAC / 4 Ref Frames
    Format settings, CABAC      : Yes
    Format settings, ReFrames   : 4 frames
    Codec ID                    : V_MPEG4/ISO/AVC
    Duration                    : 1 h 50 min
    Bit rate                    : 3 500 kb/s
    Width                       : 1 902 pixels
    Height                      : 808 pixels
    Display aspect ratio        : 2.35:1
    Frame rate mode             : Constant
    Frame rate                  : 23.976 (24000/1001) FPS
    Color space                 : YUV
    Chroma subsampling          : 4:2:0
    Bit depth                   : 8 bits
    Scan type                   : Progressive
    Bits/(Pixel*Frame)          : 0.095
    Stream size                 : 2.63 GiB (83%)
    Title                       : CinemaniaHDD
    Writing library             : x264 core 157 r2935 545de2f
    Encoding settings           : cabac=1 / ref=3 / deblock=1:0:0 / analyse=0x1:0x111 / me=hex / subme=7 / psy=1 / psy_rd=1.00:0.00 / mixed_ref=1 / me_range=16 / chroma_me=1 / trellis=1 / 8x8dct=0 / cqm=0 / deadzone=21,11 / fast_pskip=1 / chroma_qp_offset=-2 / threads=25 / lookahead_threads=4 / sliced_threads=0 / nr=0 / decimate=1 / interlaced=0 / bluray_compat=0 / constrained_intra=0 / bframes=3 / b_pyramid=2 / b_adapt=1 / b_bias=0 / direct=1 / weightb=1 / open_gop=0 / weightp=2 / keyint=240 / keyint_min=24 / scenecut=40 / intra_refresh=0 / rc_lookahead=40 / rc=abr / mbtree=1 / bitrate=3500 / ratetol=1.0 / qcomp=0.60 / qpmin=0 / qpmax=69 / qpstep=4 / vbv_maxrate=20000 / vbv_bufsize=25000 / nal_hrd=none / filler=0 / ip_ratio=1.40 / aq=1:1.00
    Default                     : Yes
    Forced                      : No
    Color range                 : Limited
    Color primaries             : BT.709
    Transfer characteristics    : BT.709
    Matrix coefficients         : BT.709

    Audio #1
    ID                          : 2
    Format                      : AC-3
    Format/Info                 : Audio Coding 3
    Commercial name             : Dolby Digital
    Codec ID                    : A_AC3
    Duration                    : 1 h 50 min
    Bit rate mode               : Constant
    Bit rate                    : 256 kb/s
    Channel(s)                  : 2 channels
    Channel layout              : L R
    Sampling rate               : 48.0 kHz
    Frame rate                  : 31.250 FPS (1536 SPF)
    Bit depth                   : 16 bits
    Compression mode            : Lossy
    Delay relative to video     : -5 ms
    Stream size                 : 202 MiB (6%)
    Title                       : Español latino [CinemaniaHDD]
    Language                    : Spanish
    Service kind                : Complete Main
    Default                     : Yes
    Forced                      : No

    Audio #2
    ID                          : 3
    Format                      : AC-3
    Format/Info                 : Audio Coding 3
    Commercial name             : Dolby Digital
    Codec ID                    : A_AC3
    Duration                    : 1 h 50 min
    Bit rate mode               : Constant
    Bit rate                    : 448 kb/s
    Channel(s)                  : 6 channels
    Channel layout              : L R C LFE Ls Rs
    Sampling rate               : 48.0 kHz
    Frame rate                  : 31.250 FPS (1536 SPF)
    Bit depth                   : 16 bits
    Compression mode            : Lossy
    Delay relative to video     : -5 ms
    Stream size                 : 354 MiB (11%)
    Title                       : Inglés [CinemaniaHDD]
    Language                    : English
    Service kind                : Complete Main
    Default                     : No
    Forced                      : No

    Text
    ID                          : 4
    Format                      : UTF-8
    Codec ID                    : S_TEXT/UTF8
    Codec ID/Info               : UTF-8 Plain Text
    Duration                    : 1 h 49 min
    Bit rate                    : 46 b/s
    Count of elements           : 1058
    Stream size                 : 37.0 KiB (0%)
    Title                       : Español latino [CinemaniaHDD]
    Language                    : Spanish
    Default                     : No
    Forced                      : No

    Menu
    00:00:00.000                : :00:00:00.000
    00:05:16.316                : :00:05:16.149
    00:11:12.714                : :00:11:12.589
    00:17:24.919                : :00:17:24.669
    00:22:27.179                : :00:22:27.179
    00:30:37.961                : :00:30:37.961
    00:36:41.366                : :00:36:41.241
    00:39:07.011                : :00:39:07.011
    00:47:09.785                : :00:47:09.785
    00:51:01.350                : :00:51:01.183
    00:56:59.166                : :00:56:59.166
    01:02:05.180                : :01:02:05.180
    01:06:14.095                : :01:06:14.095
    01:11:58.356                : :01:11:58.356
    01:16:49.396                : :01:16:49.104
    01:21:28.759                : :01:21:28.759
    01:25:16.653                : :01:25:16.653
    01:30:06.776                : :01:30:06.776
    01:37:45.902                : :01:37:45.902
    01:42:54.418                : :01:42:54.335

  • Peso: 3.17 GiB

Sinopsis

Marie Colvin (Rosamund Pike) fue una periodista reconocida mundialmente por su trabajo en distintos conflictos bélicos. Testigo de algunas cruentas batallas recientes, especialmente de lo sucedido en Oriente Medio, Colvin contaba con el respeto tanto de los lectores como de sus compañeros de profesión por su enorme valentía y humildad. Sin embargo, su personalidad era caótica y autodestructiva: abusaba del alcohol y su vida personal era, un auténtico desastre. Tras recibir el impacto de una granada en Sri Lanka, comienza a llevar un distintivo parche en el ojo mientras se sienta a tomar martinis rodeada de la alta sociedad londinense a la que tanto aborrece, hasta que un día recibe el más peligroso de todos los encargos, que acepta junto a su también prestigioso fotógrafo de guerra, Paul Conroy (Jamie Dornan). Juntos viajan a Siria para cubrir lo que sucede en la ciudad de Homs, donde aprenderá el verdadero coste de la guerra, tanto física como psicológicamente.

Ficha técnica

Video trailer de la película

Enlaces de descarga

Rip de Bluray

Descargar La corresponsal (2018) 1080p Latino




Aportes de DPeliculasHDmega la pass es:dpeliculashdmega.org Aportes de CinemaniaHD la pass es:cinemaniahdd.com
Guardado en : Bélica , Drama

Películas relacionadas

  • El discurso del Rey (2010) 1080p Latino

    El discurso del Rey (2010) 1080p Latino

    2010
    El discurso del Rey (2010) 1080p Latino

    1h 58m 2010

    Descargar El discurso del Rey (2010) 1080p Latino. El duque de York se convirtió en rey de Gran Bretaña...

    Director: Tom Hooper

    Género: Drama

    Actores: Tony Earnshaw

  • El discurso del Rey (2010) Full HD 1080p Latino

    El discurso del Rey (2010) Full HD 1080p Latino

    2010
    El discurso del Rey (2010) Full HD 1080p Latino

    1h 58m 2010

    Descargar El discurso del Rey (2010) Full HD 1080p Latino. El duque de York se convirtió en rey de Gran...

    Director: Tom Hooper

    Género: Drama

    Actores: Tony Earnshaw

  • El discurso del Rey (2010) REMUX 1080p Latino

    El discurso del Rey (2010) REMUX 1080p Latino

    2010
    El discurso del Rey (2010) REMUX 1080p Latino

    1h 58m 2010

    Descargar El discurso del Rey (2010) REMUX 1080p Latino. El duque de York se convirtió en rey de Gran...

    Director: Tom Hooper

    Género: Drama

    Actores: Tony Earnshaw

  • 8 Mile (2002) REMUX 4K HDR Latino – CMHDD

    8 Mile (2002) REMUX 4K HDR Latino – CMHDD

    2002
    8 Mile (2002) REMUX 4K HDR Latino – CMHDD

    1h 50m 2002

    Detroit, 1995. La promesa de potencia industrial se ha transformado en un hervidero de conflictos económicos...

    Director: Michael J. Moore

    Género: Drama

    Actores: Xzibit

descargar La corresponsal (2018) 1080p Latino 1080p 1080p gratis, La corresponsal (2018) 1080p Latino 1080p mega 1 link, La corresponsal (2018) 1080p Latino 1080p pelicula completa, descargar La corresponsal (2018) 1080p Latino 1080p gratis en mega.

La corresponsal (2018) 1080p Latino pelicula full hd, La corresponsal (2018) 1080p Latino mega latino, La corresponsal (2018) 1080p Latino 4k latino, La corresponsal (2018) 1080p Latino pelicula completa, La corresponsal (2018) 1080p Latino descargar gratis, descargar La corresponsal (2018) 1080p Latino pelicula latino, La corresponsal (2018) 1080p Latino 1 link mega, La corresponsal (2018) 1080p Latino 1 link google drive, La corresponsal (2018) 1080p Latino hd 1080p latino.
Comentarios 0