La Ciudad Secreta (2016) Temporada 1 NF 1080p Latino

214 vistas
1 estrella2 estrellas3 estrellas4 estrellas5 estrellas (Ninguna valoración todavía)
Cargando…

Información de La Ciudad Secreta (2016) Temporada 1 NF 1080p Latino

Datos de la película

  • Calidad: WEBDL
  • Audio: Español Latino AC3 5.1 iTunes - Ingles AC3 5.1 iTunes
  • Subtitulos: Español Latino SRT- FORZADOS SRT
  • Resolución: 1920x1080
  • Formato: MKV
  • Codec: H.264
  • Encoder: Chesse92
  • Mediainfo: Clic para Mostrar Datos Ver
  • Secret City S01E01 WEBDL NF 1080p Latino.mkv
    Format                      : Matroska
    Format version              : Version 4
    File size                   : 2.16 GiB
    Duration                    : 49 min 41 s
    Overall bit rate mode       : Variable
    Overall bit rate            : 6 224 kb/s
    Movie name                  : Secret City S01E01
    Encoded date                : UTC 2019-03-06 23:37:49 / UTC 2017-12-30 00:46:28
    Writing application         : mkvmerge v11.0.0 ('Alive') 64bit
    Writing library             : libebml v1.3.4 + libmatroska v1.4.5 / Lavf58.0.0

    Video
    ID                          : 1
    Format                      : AVC
    Format/Info                 : Advanced Video Codec
    Format profile              : [email protected]
    Format settings             : CABAC / 3 Ref Frames
    Format settings, CABAC      : Yes
    Format settings, ReFrames   : 3 frames
    Codec ID                    : V_MPEG4/ISO/AVC
    Duration                    : 49 min 41 s
    Bit rate mode               : Variable
    Bit rate                    : 5 332 kb/s
    Nominal bit rate            : 5 620 kb/s
    Maximum bit rate            : 8 430 kb/s
    Width                       : 1 920 pixels
    Height                      : 1 080 pixels
    Display aspect ratio        : 16:9
    Frame rate mode             : Constant
    Frame rate                  : 23.976 (24000/1001) FPS
    Color space                 : YUV
    Chroma subsampling          : 4:2:0
    Bit depth                   : 8 bits
    Scan type                   : Progressive
    Bits/(Pixel*Frame)          : 0.107
    Stream size                 : 1.85 GiB (86%)
    Title                       : CinemaniaHDD
    Writing library             : x264 core 148
    Encoding settings           : cabac=1 / ref=3 / deblock=1:0:0 / analyse=0x1:0x111 / me=umh / subme=10 / psy=1 / psy_rd=1.00:0.00 / mixed_ref=1 / me_range=24 / chroma_me=1 / trellis=2 / 8x8dct=0 / cqm=0 / deadzone=21,11 / fast_pskip=1 / chroma_qp_offset=-2 / threads=8 / lookahead_threads=1 / sliced_threads=0 / nr=0 / decimate=1 / interlaced=0 / bluray_compat=0 / stitchable=1 / constrained_intra=0 / bframes=2 / b_pyramid=0 / b_adapt=2 / b_bias=0 / direct=3 / weightb=1 / open_gop=0 / weightp=2 / keyint=48 / keyint_min=25 / scenecut=0 / intra_refresh=0 / rc_lookahead=48 / rc=2pass / mbtree=1 / bitrate=5620 / ratetol=1.0 / qcomp=0.50 / qpmin=6 / qpmax=51 / qpstep=4 / cplxblur=20.0 / qblur=0.5 / vbv_maxrate=8430 / vbv_bufsize=11240 / nal_hrd=vbr / filler=0 / ip_ratio=1.40 / aq=1:1.00
    Default                     : Yes
    Forced                      : No
    Statistics Tags Issue       : mkvmerge v11.0.0 ('Alive') 64bit 2019-03-06 23:37:49 / mkvmerge v11.0.0 ('Alive') 64bit 2019-03-06 23:37:49 / UTC 2017-12-30 00:46:28
    FromStats_BitRate           : 5453457
    FromStats_Duration          : 00:49:41.354000000
    FromStats_FrameCount        : 71481
    FromStats_StreamSize        : 2032335998

    Audio #1
    ID                          : 2
    Format                      : AC-3
    Format/Info                 : Audio Coding 3
    Commercial name             : Dolby Digital
    Codec ID                    : A_AC3
    Duration                    : 49 min 41 s
    Bit rate mode               : Constant
    Bit rate                    : 384 kb/s
    Channel(s)                  : 6 channels
    Channel layout              : L R C LFE Ls Rs
    Sampling rate               : 48.0 kHz
    Frame rate                  : 31.250 FPS (1536 SPF)
    Bit depth                   : 16 bits
    Compression mode            : Lossy
    Stream size                 : 136 MiB (6%)
    Title                       : Español latino [CinemaniaHDD]
    Language                    : Spanish
    Service kind                : Complete Main
    Default                     : Yes
    Forced                      : No
    Encoded date                : UTC 2018-01-11 04:02:59
    Statistics Tags Issue       : mkvmerge v11.0.0 ('Alive') 64bit 2019-03-06 23:37:49 / mkvmerge v11.0.0 ('Alive') 64bit 2019-03-06 23:37:49 / UTC 2017-12-30 00:46:28
    FromStats_BitRate           : 384000
    FromStats_Duration          : 00:49:41.408000000
    FromStats_FrameCount        : 93169
    FromStats_StreamSize        : 143107584

    Audio #2
    ID                          : 3
    Format                      : AC-3
    Format/Info                 : Audio Coding 3
    Commercial name             : Dolby Digital
    Codec ID                    : A_AC3
    Duration                    : 49 min 41 s
    Bit rate mode               : Constant
    Bit rate                    : 384 kb/s
    Channel(s)                  : 6 channels
    Channel layout              : L R C LFE Ls Rs
    Sampling rate               : 48.0 kHz
    Frame rate                  : 31.250 FPS (1536 SPF)
    Bit depth                   : 16 bits
    Compression mode            : Lossy
    Stream size                 : 136 MiB (6%)
    Title                       : Inglés [CinemaniaHDD]
    Language                    : English
    Service kind                : Complete Main
    Default                     : No
    Forced                      : No
    Encoded date                : UTC 2017-12-30 00:46:28
    Statistics Tags Issue       : mkvmerge v11.0.0 ('Alive') 64bit 2019-03-06 23:37:49 / mkvmerge v11.0.0 ('Alive') 64bit 2019-03-06 23:37:49 / UTC 2017-12-30 00:46:28
    FromStats_BitRate           : 384000
    FromStats_Duration          : 00:49:41.408000000
    FromStats_FrameCount        : 93169
    FromStats_StreamSize        : 143107584

    Text #1
    ID                          : 4
    Format                      : UTF-8
    Codec ID                    : S_TEXT/UTF8
    Codec ID/Info               : UTF-8 Plain Text
    Title                       : Forzados [CinemaniaHDD]
    Language                    : Spanish
    Default                     : Yes
    Forced                      : Yes
    Statistics Tags Issue       : mkvmerge v11.0.0 ('Alive') 64bit 2019-03-06 23:37:49 / mkvmerge v11.0.0 ('Alive') 64bit 2019-03-06 23:37:49 / UTC 2017-12-30 00:46:28
    FromStats_BitRate           : 1
    FromStats_Duration          : 00:49:15.578000000
    FromStats_FrameCount        : 26
    FromStats_StreamSize        : 721

    Text #2
    ID                          : 5
    Format                      : UTF-8
    Codec ID                    : S_TEXT/UTF8
    Codec ID/Info               : UTF-8 Plain Text
    Title                       : Español latino [CinemaniaHDD]
    Language                    : Spanish
    Default                     : No
    Forced                      : No
    Statistics Tags Issue       : mkvmerge v11.0.0 ('Alive') 64bit 2019-03-06 23:37:49 / mkvmerge v11.0.0 ('Alive') 64bit 2019-03-06 23:37:49 / UTC 2017-12-30 00:46:28
    FromStats_BitRate           : 49
    FromStats_Duration          : 00:49:15.619000000
    FromStats_FrameCount        : 450
    FromStats_StreamSize        : 18192

  • Peso: 2GB Aproximado por capitulo (11 TotalGB)

Sinopsis

Bajo la plácida fachada de Canberra, en medio de la creciente tensión entre China y Estados Unidos, la periodista política senior Harriet Dunkley descubre una ciudad secreta de conspiraciones entrelazadas, poniendo vidas inocentes en peligro, incluso la suya.

Ficha técnica

  • Titulo original: Secret City
  • Fecha de lanzamiento: 05-06-2016 (AU)
  • Género: Drama, Series, War & Politics
  • Puntuación: 0.0 0 votos
  • Duración:
    1h 0m

Video trailer de la película

Enlaces de descarga

Rip de Bluray

Descargar La Ciudad Secreta (2016) Temporada 1 NF 1080p Latino




Aportes de DPeliculasHDmega la pass es:dpeliculashdmega.org Aportes de CinemaniaHD la pass es:cinemaniahdd.com
Guardado en : Drama , Series , War & Politics

Películas relacionadas

  • Las Dos Reinas (2018) 4K UHD HDR Latino

    2018
    Las Dos Reinas (2018) 4K UHD HDR Latino

    0.0 2h 5m 2018

    Descargar Las Dos Reinas (2018) 4K UHD HDR Latino, Mega, Google Drive. Dos mujeres rivales en el poder...

    Director: Josie Rourke

    Género: 4K HDR

    Actores: Thom Petty

  • The Mule (2018) 1080p Latino

    2018
    The Mule (2018) 1080p Latino

    0.0 1h 56m 2018

    A Earl Stone (Eastwood), un octogenario que está en quiebra, solo, y que se enfrenta a la ejecución...

    Director: Clint Eastwood

    Género: Crimen

    Actores: Victor Rasuk

  • The mule (2018) WEB-DL 1080p Latino

    2018
    The mule (2018) WEB-DL 1080p Latino

    0.0 1h 56m 2018

    A Earl Stone (Eastwood), un octogenario que está en quiebra, solo, y que se enfrenta a la ejecución...

    Director: Clint Eastwood

    Género: Crimen

    Actores: Victor Rasuk

  • Nace Una Estrella (2018) 4K UHD HDR Latino

    2018
    Nace Una Estrella (2018) 4K UHD HDR Latino

    0.0 2h 25m 2018

    Descargar Nace Una Estrella (2018) 4K UHD HDR Latino, Mega, Google Drive. Jackson Maine es una estrella...

    Director: Bradley Cooper

    Género: 4K HDR

    Actores: Willam Belli

Comentarios 0