×

¿Problemas para descargar con Mozilla, EDGE? Deshabilita la opción "Abrir vinculos en una pestaña nueva" tal como lo muestra ésta imagen.

La Ciudad Perdida (2022) Web-DL 4K UHD HDR Latino

2.474 vistas

Información de La Ciudad Perdida (2022) Web-DL 4K UHD HDR Latino

Datos de la película

  • Calidad: WEBDL
  • Audio: Se especifica abajo de la Sinopsis
  • Subtitulos: Español Latino SRT - Ingles SRT
  • Resolución: 3840x2160pp
  • Formato: MKV
  • Codec: HEVC
  • Encoder: Melkor
  • Mediainfo: Clic para Mostrar Datos Ver
  • The Lost City (2022) WEB UHD HDR SUB.mkv
    Format                      : Matroska
    Format version              : Version 4
    File size                   : 11.9 GiB
    Duration                    : 1 h 51 min
    Overall bit rate            : 15.2 Mb/s
    Movie name                  : The Lost City (2022) CinemaniaHDD.Net
    Encoded date                : UTC 2022-05-11 03:04:57
    Writing application         : mkvmerge v56.1.0 ('My Friend') 64-bit
    Writing library             : libebml v1.4.2 + libmatroska v1.6.4
    Attachments                 : CINEMANIAHD.png

    Video
    ID                          : 1
    Format                      : HEVC
    Format/Info                 : High Efficiency Video Coding
    Format profile              : Main 10@L5@Main
    HDR format                  : SMPTE ST 2094 App 4, Version 1, HDR10+ Profile B compatible
    Codec ID                    : V_MPEGH/ISO/HEVC
    Duration                    : 1 h 51 min
    Bit rate                    : 13.8 Mb/s
    Width                       : 3 840 pixels
    Height                      : 2 160 pixels
    Display aspect ratio        : 16:9
    Frame rate mode             : Constant
    Frame rate                  : 23.976 (24000/1001) FPS
    Color space                 : YUV
    Chroma subsampling          : 4:2:0 (Type 2)
    Bit depth                   : 10 bits
    Bits/(Pixel*Frame)          : 0.069
    Stream size                 : 10.8 GiB (91%)
    Title                       : Web 2160p HDR [CinemaniaHDD]
    Default                     : Yes
    Forced                      : Yes
    Color range                 : Limited
    Color primaries             : BT.2020
    Transfer characteristics    : PQ
    Matrix coefficients         : BT.2020 non-constant
    Mastering display color pri : Display P3
    Mastering display luminance : min: 0.0001 cd/m2, max: 1000 cd/m2

    Audio #1
    ID                          : 2
    Format                      : E-AC-3 JOC
    Format/Info                 : Enhanced AC-3 with Joint Object Coding
    Commercial name             : Dolby Digital Plus with Dolby Atmos
    Codec ID                    : A_EAC3
    Duration                    : 1 h 51 min
    Bit rate mode               : Constant
    Bit rate                    : 768 kb/s
    Channel(s)                  : 6 channels
    Channel layout              : L R C LFE Ls Rs
    Sampling rate               : 48.0 kHz
    Frame rate                  : 31.250 FPS (1536 SPF)
    Compression mode            : Lossy
    Stream size                 : 614 MiB (5%)
    Title                       : Ingles [CinemaniaHDD]
    Language                    : English
    Service kind                : Complete Main
    Default                     : Yes
    Forced                      : Yes
    Complexity index            : 16
    Number of dynamic objects   : 15
    Bed channel count           : 1 channel
    Bed channel configuration   : LFE

    Audio #2
    ID                          : 3
    Format                      : AC-3
    Format/Info                 : Audio Coding 3
    Commercial name             : Dolby Digital
    Codec ID                    : A_AC3
    Duration                    : 1 h 51 min
    Bit rate mode               : Constant
    Bit rate                    : 640 kb/s
    Channel(s)                  : 6 channels
    Channel layout              : L R C LFE Ls Rs
    Sampling rate               : 48.0 kHz
    Frame rate                  : 31.250 FPS (1536 SPF)
    Compression mode            : Lossy
    Stream size                 : 512 MiB (4%)
    Title                       : Ingles AC3 [CinemaniaHDD]
    Language                    : English
    Service kind                : Complete Main
    Default                     : No
    Forced                      : No

    Text #1
    ID                          : 4
    Format                      : UTF-8
    Codec ID                    : S_TEXT/UTF8
    Codec ID/Info               : UTF-8 Plain Text
    Duration                    : 1 h 46 min
    Bit rate                    : 84 b/s
    Count of elements           : 1730
    Stream size                 : 65.9 KiB (0%)
    Title                       : Español-SRT [CinemaniaHDD]
    Language                    : Spanish
    Default                     : Yes
    Forced                      : Yes

    Text #2
    ID                          : 5
    Format                      : UTF-8
    Codec ID                    : S_TEXT/UTF8
    Codec ID/Info               : UTF-8 Plain Text
    Duration                    : 1 h 45 min
    Bit rate                    : 77 b/s
    Count of elements           : 1719
    Stream size                 : 59.5 KiB (0%)
    Title                       : Ingles-SRT [CinemaniaHDD]
    Language                    : English
    Default                     : No
    Forced                      : No

  • Peso: 11.9 GiB

Sinopsis

Descargar La Ciudad Perdida (2022) Web-DL 4K UHD HDR Latino. Una solitaria novelista romántica de gira con el modelo de la portada de su último libro se ve envuelta en un intento de secuestro que llevará a ambos a una feroz aventura en la jungla.

Audio Ingles EAC3 & AC3 5.1 WebDL

Ficha técnica

Video trailer de la película

Enlaces de descarga

Rip de Bluray

Descargar La Ciudad Perdida (2022) Web-DL 4K UHD HDR Latino




Aportes de DPeliculasHDmega la pass es:dpeliculashdmega.org Aportes de CinemaniaHD la pass es:cinemaniahdd.com
Guardado en : 4K HDR , 4K UHD , Aventura , Comedia , Romance

Películas relacionadas

  • Emergency (2022) AMZN WEB-DL 1080p Latino

    Emergency (2022) AMZN WEB-DL 1080p Latino

    2022
    Emergency (2022) AMZN WEB-DL 1080p Latino

    1h 45m 2022

    Listos para una noche legendaria de fiestas, tres estudiantes universitarios deben sopesar...

    Director: Carey Williams

    Género: Comedia

    Actores: Sebastian Chacon

  • El Tiempo Es Ahora (2022) AMZN Web-DL 1080p Latino

    El Tiempo Es Ahora (2022) AMZN Web-DL 1080p Latino

    2021
    El Tiempo Es Ahora (2022) AMZN Web-DL 1080p Latino

    1h 48m 2021

    Descargar El Tiempo Es Ahora (2022) AMZN Web-DL 1080p Latino. Un accidente obliga a Vivien y Royan a...

    Director: Elisa Amoruso

    Género: Drama

    Actores: Sebastiano Pigazzi

  • Corazón de Fuego (2022) AMZN Web-DL 1080p Latino

    Corazón de Fuego (2022) AMZN Web-DL 1080p Latino

    2022
    Corazón de Fuego (2022) AMZN Web-DL 1080p Latino

    1h 32m 2022

    Descargar Corazón de Fuego (2022) AMZN Web-DL 1080p Latino. Georgia Nolan sueña con ser la primera...

    Director: Theodore Anthony Lee Ty

    Género: Animación

    Actores: William Shatner

La Ciudad Perdida (2022) Web-DL 4K UHD HDR Latino pelicula full hd, La Ciudad Perdida (2022) Web-DL 4K UHD HDR Latino mega latino, La Ciudad Perdida (2022) Web-DL 4K UHD HDR Latino 4k latino, La Ciudad Perdida (2022) Web-DL 4K UHD HDR Latino pelicula completa, La Ciudad Perdida (2022) Web-DL 4K UHD HDR Latino descargar gratis, descargar La Ciudad Perdida (2022) Web-DL 4K UHD HDR Latino pelicula latino, La Ciudad Perdida (2022) Web-DL 4K UHD HDR Latino 1 link mega, La Ciudad Perdida (2022) Web-DL 4K UHD HDR Latino 1 link google drive, La Ciudad Perdida (2022) Web-DL 4K UHD HDR Latino hd 1080p latino.
Comentarios 0