×

¿Problemas para descargar con Mozilla, EDGE? Deshabilita la opción "Abrir vinculos en una pestaña nueva" tal como lo muestra ésta imagen.

La chica salvaje (2022) HD 1080p Latino

383 vistas

Información de La chica salvaje (2022) HD 1080p Latino

Datos de la película

  • Calidad: 1080p
  • Audio: Español Latino AC3 5.1 BLURAY - Ingles AC3 5.1 BLURAY
  • Subtitulos: Español Latino SRT- FORZADOS SRT
  • Resolución: 1920x804p
  • Formato: MKV
  • Codec: H.264
  • Encoder: Melkor
  • Mediainfo: Clic para Mostrar Datos Ver
  • La Chica Salvaje (2022) HD 1080p Latino.mkv
    Format                      : Matroska
    Format version              : Version 4
    File size                   : 3.96 GiB
    Duration                    : 2 h 5 min
    Overall bit rate            : 4 517 kb/s
    Movie name                  : Where the Crawdads Sing (2022) CinemaniaHDD.Net
    Encoded date                : UTC 2022-09-07 00:31:22
    Writing application         : mkvmerge v56.1.0 ('My Friend') 64-bit
    Writing library             : libebml v1.4.2 + libmatroska v1.6.4
    Attachments                 : CINEMANIAHD.png

    Video
    ID                          : 1
    Format                      : AVC
    Format/Info                 : Advanced Video Codec
    Format profile              : High@L4.1
    Format settings             : CABAC / 5 Ref Frames
    Format settings, CABAC      : Yes
    Format settings, Reference  : 5 frames
    Codec ID                    : V_MPEG4/ISO/AVC
    Duration                    : 2 h 5 min
    Bit rate                    : 3 500 kb/s
    Width                       : 1 920 pixels
    Height                      : 804 pixels
    Display aspect ratio        : 2.40:1
    Frame rate mode             : Constant
    Frame rate                  : 23.976 (24000/1001) FPS
    Color space                 : YUV
    Chroma subsampling          : 4:2:0
    Bit depth                   : 8 bits
    Scan type                   : Progressive
    Bits/(Pixel*Frame)          : 0.095
    Stream size                 : 3.00 GiB (76%)
    Title                       : HD1080p [CinemaniaHDD]
    Writing library             : x264 core 163 r3059 b684ebe0
    Encoding settings           : cabac=1 / ref=5 / deblock=1:-1:-1 / analyse=0x3:0x133 / me=umh / subme=9 / psy=1 / psy_rd=1.00:0.15 / mixed_ref=1 / me_range=16 / chroma_me=1 / trellis=2 / 8x8dct=1 / cqm=0 / deadzone=21,11 / fast_pskip=1 / chroma_qp_offset=-3 / threads=24 / lookahead_threads=2 / sliced_threads=0 / nr=0 / decimate=1 / interlaced=0 / bluray_compat=0 / constrained_intra=0 / bframes=3 / b_pyramid=2 / b_adapt=2 / b_bias=0 / direct=3 / weightb=1 / open_gop=0 / weightp=2 / keyint=240 / keyint_min=24 / scenecut=40 / intra_refresh=0 / rc_lookahead=60 / rc=abr / mbtree=1 / bitrate=3500 / ratetol=1.0 / qcomp=0.60 / qpmin=0 / qpmax=69 / qpstep=4 / vbv_maxrate=62500 / vbv_bufsize=78125 / nal_hrd=none / filler=0 / ip_ratio=1.40 / aq=1:1.00
    Default                     : Yes
    Forced                      : Yes
    Color range                 : Limited
    Color primaries             : BT.709
    Transfer characteristics    : BT.709
    Matrix coefficients         : BT.709

    Audio #1
    ID                          : 2
    ID in the original source m : 4356 (0x1104)
    Format                      : AC-3
    Format/Info                 : Audio Coding 3
    Commercial name             : Dolby Digital
    Codec ID                    : A_AC3
    Duration                    : 2 h 5 min
    Bit rate mode               : Constant
    Bit rate                    : 640 kb/s
    Channel(s)                  : 6 channels
    Channel layout              : L R C LFE Ls Rs
    Sampling rate               : 48.0 kHz
    Frame rate                  : 31.250 FPS (1536 SPF)
    Compression mode            : Lossy
    Delay relative to video     : -5 ms
    Stream size                 : 574 MiB (14%)
    Title                       : Español Latino [CinemaniaHDD]
    Language                    : Spanish
    Service kind                : Complete Main
    Default                     : Yes
    Forced                      : Yes
    Original source medium      : Blu-ray

    Audio #2
    ID                          : 3
    Format                      : AC-3
    Format/Info                 : Audio Coding 3
    Commercial name             : Dolby Digital
    Codec ID                    : A_AC3
    Duration                    : 2 h 5 min
    Bit rate mode               : Constant
    Bit rate                    : 448 kb/s
    Channel(s)                  : 6 channels
    Channel layout              : L R C LFE Ls Rs
    Sampling rate               : 48.0 kHz
    Frame rate                  : 31.250 FPS (1536 SPF)
    Compression mode            : Lossy
    Delay relative to video     : -5 ms
    Stream size                 : 402 MiB (10%)
    Title                       : Ingles [CinemaniaHDD]
    Language                    : English
    Service kind                : Complete Main
    Default                     : No
    Forced                      : No

    Text #1
    ID                          : 4
    Format                      : UTF-8
    Codec ID                    : S_TEXT/UTF8
    Codec ID/Info               : UTF-8 Plain Text
    Duration                    : 1 h 57 min
    Bit rate                    : 0 b/s
    Count of elements           : 16
    Stream size                 : 318 Bytes (0%)
    Title                       : Forzados-SRT [CinemaniaHDD]
    Language                    : Spanish
    Default                     : Yes
    Forced                      : Yes

    Text #2
    ID                          : 5
    Format                      : UTF-8
    Codec ID                    : S_TEXT/UTF8
    Codec ID/Info               : UTF-8 Plain Text
    Duration                    : 1 h 59 min
    Bit rate                    : 48 b/s
    Count of elements           : 1278
    Stream size                 : 42.9 KiB (0%)
    Title                       : Español-SRT [CinemaniaHDD]
    Language                    : Spanish
    Default                     : No
    Forced                      : No

    Text #3
    ID                          : 6
    Format                      : UTF-8
    Codec ID                    : S_TEXT/UTF8
    Codec ID/Info               : UTF-8 Plain Text
    Duration                    : 2 h 4 min
    Bit rate                    : 51 b/s
    Count of elements           : 1351
    Stream size                 : 47.3 KiB (0%)
    Title                       : Ingles-SRT [CinemaniaHDD]
    Language                    : English
    Default                     : No
    Forced                      : No

    Menu
    00:00:00.000                : Chapter 01
    00:08:45.358                : Chapter 02
    00:15:25.966                : Chapter 03
    00:22:13.957                : Chapter 04
    00:29:12.834                : Chapter 05
    00:36:34.192                : Chapter 06
    00:46:39.338                : Chapter 07
    00:54:06.660                : Chapter 08
    01:00:51.230                : Chapter 09
    01:06:53.300                : Chapter 10
    01:15:50.462                : Chapter 11
    01:22:19.100                : Chapter 12
    01:29:23.441                : Chapter 13
    01:36:23.152                : Chapter 14
    01:43:36.335                : Chapter 15
    01:53:24.088                : Chapter 16

  • Peso: 3.96 GiB

Sinopsis

Descargar La chica salvaje (2022) HD 1080p Latino. La historia de Kya, una niña abandonada que se crió hasta la edad adulta en los peligrosos pantanos de Carolina del Norte. Atraída por dos jóvenes de la ciudad, Kya se abre a un mundo nuevo y sorprendente; pero cuando uno de ellos es encontrado muerto, la comunidad inmediatamente la señala como la principal sospechosa.

Ficha técnica

Video trailer de la película

Enlaces de descarga

Rip de Bluray

Descargar La chica salvaje (2022) HD 1080p Latino




Aportes de DPeliculasHDmega la pass es:dpeliculashdmega.org Aportes de CinemaniaHD la pass es:cinemaniahdd.com Aportes recientes:cinemaniahdd.net
Guardado en : Drama , HD 1080p , Misterio

Películas relacionadas

  • Un Heroe Anonimo (2024) 1080p Latino-CMHDD

    Un Heroe Anonimo (2024) 1080p Latino-CMHDD

    2024
    Un Heroe Anonimo (2024) 1080p Latino-CMHDD

    1h 53m 2024

    Descargar Un Heroe Anonimo (2024) 1080p Latino-CMHDD. Basada en una extraordinaria historia real, la...

    Director: Richard Ramsey

    Género: Drama

    Actores: Vin Morreale Jr

  • Un Heroe Anonimo (2024) Full HD 1080p Latino-CMHDD

    Un Heroe Anonimo (2024) Full HD 1080p Latino-CMHDD

    2024
    Un Heroe Anonimo (2024) Full HD 1080p Latino-CMHDD

    1h 53m 2024

    Descargar Un Heroe Anonimo (2024) Full HD 1080p Latino-CMHDD Basada en una extraordinaria historia real,...

    Director: Richard Ramsey

    Género: Drama

    Actores: Vin Morreale Jr

  • Un Heroe Anonimo (2024) REMUX 1080p Latino-CMHDD

    Un Heroe Anonimo (2024) REMUX 1080p Latino-CMHDD

    2024
    Un Heroe Anonimo (2024) REMUX 1080p Latino-CMHDD

    1h 53m 2024

    Descargar Un Heroe Anonimo (2024) REMUX 1080p Latino-CMHDD. Basada en una extraordinaria historia real,...

    Director: Richard Ramsey

    Género: Drama

    Actores: Vin Morreale Jr

  • Profesión peligro (2024) 1080p Latino-CMHDD

    Profesión peligro (2024) 1080p Latino-CMHDD

    2024
    Profesión peligro (2024) 1080p Latino-CMHDD

    2h 6m 2024

    Descargar Profesión peligro (2024) 1080p Latino-CMHDD. Es un doble de acción, y al igual que todos...

    Director: Paul Barry

    Género: Acción

    Actores: Zara Michales

  • Cómplices del engaño (2024) HD 1080p Latino

    Cómplices del engaño (2024) HD 1080p Latino

    2024
    Cómplices del engaño (2024) HD 1080p Latino

    1h 56m 2024

    Descargar Cómplices del engaño (2024) HD 1080p Latino. Gary Johnson es el asesino profesional más...

    Director: T.J. Larson

    Género: Comedia

    Actores: Tre Styles

descargar La chica salvaje (2022) HD 1080p Latino 1080p 1080p gratis, La chica salvaje (2022) HD 1080p Latino 1080p mega 1 link, La chica salvaje (2022) HD 1080p Latino 1080p pelicula completa, descargar La chica salvaje (2022) HD 1080p Latino 1080p gratis en mega.

La chica salvaje (2022) HD 1080p Latino pelicula full hd, La chica salvaje (2022) HD 1080p Latino mega latino, La chica salvaje (2022) HD 1080p Latino 4k latino, La chica salvaje (2022) HD 1080p Latino pelicula completa, La chica salvaje (2022) HD 1080p Latino descargar gratis, descargar La chica salvaje (2022) HD 1080p Latino pelicula latino, La chica salvaje (2022) HD 1080p Latino 1 link mega, La chica salvaje (2022) HD 1080p Latino 1 link google drive, La chica salvaje (2022) HD 1080p Latino hd 1080p latino.
Comentarios 0