La Chica En La Telaraña (2018) 4K UHD HDR Latino

238 vistas
1 estrella2 estrellas3 estrellas4 estrellas5 estrellas (Ninguna valoración todavía)
Cargando…

Información de La Chica En La Telaraña (2018) 4K UHD HDR Latino

Datos de la película

  • Calidad: 4K HDR
  • Audio: Español Latino AC3 5.1 BLURAY - Ingles AC3 5.1 BLURAY
  • Subtitulos: Español Latino PGS - Ingles PGS
  • Resolución: 3840x1608p
  • Formato: MKV
  • Codec: HEVC
  • Encoder: CinefiloCool
  • Mediainfo: Clic para Mostrar Datos Ver
  • La Chica En La Telaraña (2018) UHD HDR Latino.mkv
    Format                      : Matroska
    Format version              : Version 4
    File size                   : 9.28 GiB
    Duration                    : 1 h 55 min
    Overall bit rate            : 11.5 Mb/s
    Movie name                  : CinemaniaHDD.Net
    Encoded date                : UTC 2019-03-14 05:40:01
    Writing application         : mkvmerge v30.1.0 ('Forever And More') 64-bit
    Writing library             : libebml v1.3.6 + libmatroska v1.4.9

    Video
    ID                          : 1
    Format                      : HEVC
    Format/Info                 : High Efficiency Video Coding
    Commercial name             : HDR10
    Format profile              : Main [email protected]@High
    Codec ID                    : V_MPEGH/ISO/HEVC
    Duration                    : 1 h 55 min
    Bit rate                    : 10.2 Mb/s
    Width                       : 3 840 pixels
    Height                      : 1 608 pixels
    Display aspect ratio        : 2.40:1
    Frame rate mode             : Constant
    Frame rate                  : 23.976 (24000/1001) FPS
    Color space                 : YUV
    Chroma subsampling          : 4:2:0 (Type 2)
    Bit depth                   : 10 bits
    Bits/(Pixel*Frame)          : 0.069
    Stream size                 : 8.23 GiB (89%)
    Title                       : 2160p HDR [Bluray]
    Writing library             : x265 3.0_RC+13-ae085e5cd8a2:[Windows][GCC 8.2.1][64 bit] 10bit
    Encoding settings           : cpuid=1111039 / frame-threads=16 / numa-pools=24,24,24,24 / wpp / no-pmode / no-pme / no-psnr / no-ssim / log-level=2 / input-csp=1 / input-res=3840x1608 / interlace=0 / total-frames=0 / level-idc=51 / high-tier=1 / uhd-bd=0 / ref=3 / no-allow-non-conformance / repeat-headers / annexb / aud / hrd / info / hash=0 / no-temporal-layers / no-open-gop / min-keyint=1 / keyint=24 / gop-lookahead=0 / bframes=4 / b-adapt=2 / b-pyramid / bframe-bias=0 / rc-lookahead=25 / lookahead-slices=4 / scenecut=40 / radl=0 / no-splice / no-intra-refresh / ctu=64 / min-cu-size=8 / no-rect / no-amp / max-tu-size=32 / tu-inter-depth=1 / tu-intra-depth=1 / limit-tu=0 / rdoq-level=0 / dynamic-rd=0.00 / no-ssim-rd / signhide / no-tskip / nr-intra=0 / nr-inter=0 / no-constrained-intra / strong-intra-smoothing / max-merge=2 / limit-refs=3 / no-limit-modes / me=1 / subme=2 / merange=57 / temporal-mvp / weightp / no-weightb / no-analyze-src-pics / deblock=0:0 / no-sao / no-sao-non-deblock / rd=3 / no-early-skip / rskip / no-fast-intra / no-tskip-fast / no-cu-lossless / no-b-intra / no-splitrd-skip / rdpenalty=0 / psy-rd=2.00 / psy-rdoq=0.00 / no-rd-refine / no-lossless / cbqpoffs=0 / crqpoffs=0 / rc=crf / crf=16.0 / qcomp=0.60 / qpstep=4 / stats-write=0 / stats-read=0 / vbv-maxrate=160000 / vbv-bufsize=160000 / vbv-init=0.9 / crf-max=0.0 / crf-min=0.0 / ipratio=1.40 / pbratio=1.30 / aq-mode=1 / aq-strength=1.00 / cutree / zone-count=0 / no-strict-cbr / qg-size=32 / no-rc-grain / qpmax=69 / qpmin=0 / no-const-vbv / sar=1 / overscan=0 / videoformat=5 / range=0 / colorprim=9 / transfer=16 / colormatrix=9 / chromaloc=1 / chromaloc-top=2 / chromaloc-bottom=2 / display-window=0 / master-display=G(13250,34500)B(7500,3000)R(34000,16000)WP(15635,16450)L(40000000,50) / max-cll=3894,996 / min-luma=0 / max-luma=1023 / log2-max-poc-lsb=8 / vui-timing-info / vui-hrd-info / slices=1 / opt-qp-pps / opt-ref-list-length-pps / no-multi-pass-opt-rps / scenecut-bias=0.05 / no-opt-cu-delta-qp / no-aq-motion / hdr / hdr-opt / no-dhdr10-opt / no-idr-recovery-sei / analysis-reuse-level=5 / scale-factor=0 / refine-intra=0 / refine-inter=0 / refine-mv=0 / refine-ctu-distortion=0 / no-limit-sao / ctu-info=0 / no-lowpass-dct / refine-analysis-type=0 / copy-pic=1 / max-ausize-factor=1.0 / no-dynamic-refine / no-single-sei / no-hevc-aq / qp-adaptation-range=1.00
    Language                    : English
    Default                     : Yes
    Forced                      : No
    Color range                 : Limited
    Color primaries             : BT.2020
    Transfer characteristics    : PQ
    Matrix coefficients         : BT.2020 non-constant
    Mastering display color pri : Display P3
    Mastering display luminance : min: 0.0050 cd/m2, max: 4000 cd/m2
    Maximum Content Light Level : 3894 cd/m2
    Maximum Frame-Average Light : 996 cd/m2

    Audio #1
    ID                          : 2
    Format                      : AC-3
    Format/Info                 : Audio Coding 3
    Commercial name             : Dolby Digital
    Codec ID                    : A_AC3
    Duration                    : 1 h 55 min
    Bit rate mode               : Constant
    Bit rate                    : 640 kb/s
    Channel(s)                  : 6 channels
    Channel layout              : L R C LFE Ls Rs
    Sampling rate               : 48.0 kHz
    Frame rate                  : 31.250 FPS (1536 SPF)
    Bit depth                   : 16 bits
    Compression mode            : Lossy
    Stream size                 : 528 MiB (6%)
    Title                       : AC3_5.1_Bluray_Esp
    Language                    : Spanish
    Service kind                : Complete Main
    Default                     : Yes
    Forced                      : Yes

    Audio #2
    ID                          : 3
    Format                      : AC-3
    Format/Info                 : Audio Coding 3
    Commercial name             : Dolby Digital
    Codec ID                    : A_AC3
    Duration                    : 1 h 55 min
    Bit rate mode               : Constant
    Bit rate                    : 640 kb/s
    Channel(s)                  : 6 channels
    Channel layout              : L R C LFE Ls Rs
    Sampling rate               : 48.0 kHz
    Frame rate                  : 31.250 FPS (1536 SPF)
    Bit depth                   : 16 bits
    Compression mode            : Lossy
    Delay relative to video     : 8 ms
    Stream size                 : 528 MiB (6%)
    Title                       : AC3_5.1_Bluray_Eng
    Language                    : English
    Service kind                : Complete Main
    Default                     : No
    Forced                      : No

    Text #1
    ID                          : 4
    Format                      : PGS
    Muxing mode                 : zlib
    Codec ID                    : S_HDMV/PGS
    Codec ID/Info               : Picture based subtitle format used on BDs/HD-DVDs
    Duration                    : 1 h 53 min
    Bit rate                    : 14.4 kb/s
    Count of elements           : 1361
    Stream size                 : 11.7 MiB (0%)
    Title                       : Sub_Esp [PGS]
    Language                    : Spanish
    Default                     : No
    Forced                      : No

    Text #2
    ID                          : 5
    Format                      : PGS
    Muxing mode                 : zlib
    Codec ID                    : S_HDMV/PGS
    Codec ID/Info               : Picture based subtitle format used on BDs/HD-DVDs
    Duration                    : 1 h 46 min
    Bit rate                    : 14.7 kb/s
    Count of elements           : 1262
    Stream size                 : 11.2 MiB (0%)
    Title                       : Sub_Eng [PGS]
    Language                    : English
    Default                     : No
    Forced                      : No

    Menu
    00:00:00.000                : :Chapter 1
    00:10:23.914                : :Chapter 2
    00:16:32.866                : :Chapter 3
    00:21:05.430                : :Chapter 4
    00:27:34.444                : :Chapter 5
    00:34:20.058                : :Chapter 6
    00:41:41.040                : :Chapter 7
    00:48:24.318                : :Chapter 8
    00:58:39.182                : :Chapter 9
    01:05:56.827                : :Chapter 10
    01:10:31.977                : :Chapter 11
    01:20:03.924                : :Chapter 12
    01:27:18.900                : :Chapter 13
    01:35:05.533                : :Chapter 14
    01:38:04.128                : :Chapter 15
    01:43:16.565                : :Chapter 16

  • Peso: 9.28 GiB

Sinopsis

Descargar La Chica En La Telaraña (2018) 4K UHD HDR Latino, Mega, Google Drive. La joven hacker Lisbeth Salander y el periodista Mikael Blomkvist se encuentran atrapados en una red de espías, ciberdelincuentes y funcionarios corruptos del gobierno. Adaptación de la novela “Lo que no te mata te hace más fuerte” de David Lagercrantz, una continuación literaria de la saga ‘Millennium’ creada originalmente por Stieg Larsson.

Ficha técnica

  • Titulo original: The Girl in the Spider's Web
  • Fecha de lanzamiento: 25-10-2018 (Canada, Germany, Sweden, United Kingdom, United States of America)
  • Director: Fede Alvarez
  • Género: 4K HDR, 4K UHD, Acción, Crimen, Suspense
  • Puntuación: 0.0 0 votos
  • Duración:
    1h 56m

Video trailer de la película

Enlaces de descarga

Rip de Bluray

Descargar La Chica En La Telaraña (2018) 4K UHD HDR Latino




Aportes de DPeliculasHDmega la pass es:dpeliculashdmega.org Aportes de CinemaniaHD la pass es:cinemaniahdd.com
Guardado en : 4K HDR , 4K UHD , Acción , Crimen , Suspense

Películas relacionadas

  • WiFi Ralph (2018) 4K UHD HDR Latino

    2018
    WiFi Ralph (2018) 4K UHD HDR Latino

    5.0 1h 52m 2018

    Descargar WiFi Ralph (2018) 4K UHD HDR Latino, Mega, Google Drive. Ralph sale de los recreativos y......

    Director: Rich Moore

    Género: 4K HDR

    Actores: Wayne Sermon

  • Las Dos Reinas (2018) 4K UHD HDR Latino

    2018
    Las Dos Reinas (2018) 4K UHD HDR Latino

    5.0 2h 5m 2018

    Descargar Las Dos Reinas (2018) 4K UHD HDR Latino, Mega, Google Drive. Dos mujeres rivales en el poder...

    Director: Josie Rourke

    Género: 4K HDR

    Actores: Thom Petty

  • Bumbeblee (2018) Web-DL 4K HDR 2160p Latino

    2018
    Bumbeblee (2018) Web-DL 4K HDR 2160p Latino

    0.0 1h 54m 2018

    Sexta entrega de la saga 'Transformers', esta vez centrada en el "hermano pequeño" de los Autobots,...

    Director: Travis Knight

    Género: Acción

    Actores: Yianni Apostolopolous

  • The Mule (2018) 1080p Latino

    2018
    The Mule (2018) 1080p Latino

    0.0 1h 56m 2018

    A Earl Stone (Eastwood), un octogenario que está en quiebra, solo, y que se enfrenta a la ejecución...

    Director: Clint Eastwood

    Género: Crimen

    Actores: Victor Rasuk

  • Bumbeblee (2018) Web-DL 4K UHD 2160p Latino

    2018
    Bumbeblee (2018) Web-DL 4K UHD 2160p Latino

    0.0 1h 54m 2018

    Sexta entrega de la saga 'Transformers', esta vez centrada en el "hermano pequeño" de los Autobots,...

    Director: Travis Knight

    Género: Acción

    Actores: Yianni Apostolopolous

Comentarios 0