×

¿Problemas para descargar con Mozilla, EDGE? Deshabilita la opción "Abrir vinculos en una pestaña nueva" tal como lo muestra ésta imagen.

La Cenicienta (1950) REMUX 1080p Latino – CMHDD

363 vistas

Información de La Cenicienta (1950) REMUX 1080p Latino – CMHDD

Datos de la película

  • Calidad: Full 1080p
  • Audio: Español Latino AC3 5.1 BLURAY - Ingles DTS-HD Master 7.1 BLURAY
  • Subtitulos: Español Latino SRT- FORZADOS SRT
  • Resolución: 1920x1080p
  • Formato: MKV
  • Codec: H.264
  • Encoder: Dracarys
  • Mediainfo: Clic para Mostrar Datos Ver
  • Format                      : Matroska
    Format version              : Version 4
    File size                   : 19.9 GiB
    Duration                    : 1 h 14 min
    Overall bit rate mode       : Variable
    Overall bit rate            : 38.2 Mb/s
    Movie name                  : La Cenicienta (1950) REMUX 1080p Latino - CMHDD
    Encoded date                : UTC 2020-07-03 22:32:10
    Writing application         : mkvmerge v46.0.0 ('No Deeper Escape') 64-bit
    Writing library             : libebml v1.3.10 + libmatroska v1.5.2

    Video
    ID                          : 1
    Format                      : AVC
    Format/Info                 : Advanced Video Codec
    Format profile              : High@L4.1
    Format settings             : CABAC / 4 Ref Frames
    Format settings, CABAC      : Yes
    Format settings, Reference  : 4 frames
    Codec ID                    : V_MPEG4/ISO/AVC
    Duration                    : 1 h 14 min
    Bit rate mode               : Variable
    Bit rate                    : 33.7 Mb/s
    Maximum bit rate            : 36.0 Mb/s
    Width                       : 1 920 pixels
    Height                      : 1 080 pixels
    Display aspect ratio        : 16:9
    Frame rate mode             : Constant
    Frame rate                  : 23.976 (24000/1001) FPS
    Color space                 : YUV
    Chroma subsampling          : 4:2:0
    Bit depth                   : 8 bits
    Scan type                   : Progressive
    Bits/(Pixel*Frame)          : 0.678
    Stream size                 : 17.5 GiB (88%)
    Default                     : Yes
    Forced                      : No

    Audio #1
    ID                          : 2
    Format                      : AC-3
    Format/Info                 : Audio Coding 3
    Commercial name             : Dolby Digital
    Codec ID                    : A_AC3
    Duration                    : 1 h 14 min
    Bit rate mode               : Constant
    Bit rate                    : 640 kb/s
    Channel(s)                  : 6 channels
    Channel layout              : L R C LFE Ls Rs
    Sampling rate               : 48.0 kHz
    Frame rate                  : 31.250 FPS (1536 SPF)
    Compression mode            : Lossy
    Stream size                 : 341 MiB (2%)
    Language                    : Spanish
    Service kind                : Complete Main
    Default                     : Yes
    Forced                      : No

    Audio #2
    ID                          : 3
    Format                      : DTS XLL
    Format/Info                 : Digital Theater Systems
    Commercial name             : DTS-HD Master Audio
    Codec ID                    : A_DTS
    Duration                    : 1 h 14 min
    Bit rate mode               : Variable
    Bit rate                    : 3 836 kb/s
    Channel(s)                  : 8 channels
    Channel layout              : C L R LFE Lb Rb Lss Rss
    Sampling rate               : 48.0 kHz
    Frame rate                  : 93.750 FPS (512 SPF)
    Bit depth                   : 24 bits
    Compression mode            : Lossless
    Stream size                 : 2.00 GiB (10%)
    Language                    : English
    Default                     : No
    Forced                      : No

    Text #1
    ID                          : 4
    Format                      : PGS
    Muxing mode                 : zlib
    Codec ID                    : S_HDMV/PGS
    Codec ID/Info               : Picture based subtitle format used on BDs/HD-DVDs
    Duration                    : 1 h 13 min
    Bit rate                    : 32.2 kb/s
    Count of elements           : 1860
    Stream size                 : 17.0 MiB (0%)
    Language                    : Spanish
    Default                     : No
    Forced                      : No

    Text #2
    ID                          : 5
    Format                      : PGS
    Muxing mode                 : zlib
    Codec ID                    : S_HDMV/PGS
    Codec ID/Info               : Picture based subtitle format used on BDs/HD-DVDs
    Duration                    : 1 h 12 min
    Bit rate                    : 117 b/s
    Count of elements           : 8
    Stream size                 : 62.5 KiB (0%)
    Language                    : Spanish
    Default                     : No
    Forced                      : No

    Text #3
    ID                          : 6
    Format                      : UTF-8
    Codec ID                    : S_TEXT/UTF8
    Codec ID/Info               : UTF-8 Plain Text
    Duration                    : 1 h 13 min
    Bit rate                    : 51 b/s
    Count of elements           : 930
    Stream size                 : 28.0 KiB (0%)
    Language                    : Spanish
    Default                     : No
    Forced                      : No

    Text #4
    ID                          : 7
    Format                      : UTF-8
    Codec ID                    : S_TEXT/UTF8
    Codec ID/Info               : UTF-8 Plain Text
    Duration                    : 1 h 12 min
    Bit rate                    : 0 b/s
    Count of elements           : 4
    Stream size                 : 84.0 Bytes (0%)
    Title                       : Forzados
    Language                    : Spanish
    Default                     : Yes
    Forced                      : No

  • Peso: 19.9 GiB

Sinopsis

Cenicienta vive con su madrastra y las dos hijas de ésta. Las tres le hacen la vida imposible y la tienen trabajando sin parar en las labores del hogar. Pero ella establece amistad con los animales de la casa, que le ayudarán a asistir al baile Real al que su madre no le permite ir.

Ficha técnica

Video trailer de la película

Enlaces de descarga

Rip de Bluray

Descargar La Cenicienta (1950) REMUX 1080p Latino – CMHDD




Aportes de DPeliculasHDmega la pass es:dpeliculashdmega.org Aportes de CinemaniaHD la pass es:cinemaniahdd.com
Guardado en : Animación , Familia , Fantasía , Remux , Romance

Películas relacionadas

descargar La Cenicienta (1950) REMUX 1080p Latino – CMHDD Full 1080p 1080p gratis, La Cenicienta (1950) REMUX 1080p Latino – CMHDD Full 1080p mega 1 link, La Cenicienta (1950) REMUX 1080p Latino – CMHDD Full 1080p pelicula completa, descargar La Cenicienta (1950) REMUX 1080p Latino – CMHDD Full 1080p gratis en mega.

La Cenicienta (1950) REMUX 1080p Latino – CMHDD pelicula full hd, La Cenicienta (1950) REMUX 1080p Latino – CMHDD mega latino, La Cenicienta (1950) REMUX 1080p Latino – CMHDD 4k latino, La Cenicienta (1950) REMUX 1080p Latino – CMHDD pelicula completa, La Cenicienta (1950) REMUX 1080p Latino – CMHDD descargar gratis, descargar La Cenicienta (1950) REMUX 1080p Latino – CMHDD pelicula latino, La Cenicienta (1950) REMUX 1080p Latino – CMHDD 1 link mega, La Cenicienta (1950) REMUX 1080p Latino – CMHDD 1 link google drive, La Cenicienta (1950) REMUX 1080p Latino – CMHDD hd 1080p latino.
Comentarios 0