×

¿Problemas para descargar con Mozilla, EDGE? Deshabilita la opción "Abrir vinculos en una pestaña nueva" tal como lo muestra ésta imagen.

La Cenicienta (1950) HD 1080p Latino – CMHDD

360 vistas

Información de La Cenicienta (1950) HD 1080p Latino – CMHDD

Datos de la película

  • Calidad: 1080p
  • Audio: Español Latino AC3 5.1 BLURAY - Ingles AC3 5.1 BLURAY
  • Subtitulos: Español Latino SRT- FORZADOS SRT
  • Resolución: 1452x1080p
  • Formato: MKV
  • Codec: H.264
  • Encoder: Dracarys
  • Mediainfo: Clic para Mostrar Datos Ver
  • Format                      : Matroska
    Format version              : Version 4
    File size                   : 2.50 GiB
    Duration                    : 1 h 14 min
    Overall bit rate            : 4 810 kb/s
    Movie name                  : La Cenicienta (1950) HD 1080p Latino - CMHDD
    Encoded date                : UTC 2020-07-03 22:35:50
    Writing application         : mkvmerge v46.0.0 ('No Deeper Escape') 64-bit
    Writing library             : libebml v1.3.10 + libmatroska v1.5.2

    Video
    ID                          : 1
    Format                      : AVC
    Format/Info                 : Advanced Video Codec
    Format profile              : High@L4.1
    Format settings             : CABAC / 5 Ref Frames
    Format settings, CABAC      : Yes
    Format settings, Reference  : 5 frames
    Codec ID                    : V_MPEG4/ISO/AVC
    Duration                    : 1 h 14 min
    Bit rate                    : 3 500 kb/s
    Width                       : 1 452 pixels
    Height                      : 1 080 pixels
    Display aspect ratio        : 4:3
    Frame rate mode             : Constant
    Frame rate                  : 23.976 (24000/1001) FPS
    Color space                 : YUV
    Chroma subsampling          : 4:2:0
    Bit depth                   : 8 bits
    Scan type                   : Progressive
    Bits/(Pixel*Frame)          : 0.093
    Stream size                 : 1.84 GiB (73%)
    Writing library             : x264 core 157 r2935 545de2f
    Encoding settings           : cabac=1 / ref=5 / deblock=1:0:0 / analyse=0x3:0x113 / me=hex / subme=8 / psy=1 / psy_rd=1.00:0.00 / mixed_ref=1 / me_range=16 / chroma_me=1 / trellis=2 / 8x8dct=1 / cqm=0 / deadzone=21,11 / fast_pskip=1 / chroma_qp_offset=-2 / threads=24 / lookahead_threads=4 / sliced_threads=0 / nr=0 / decimate=1 / interlaced=0 / bluray_compat=0 / constrained_intra=0 / bframes=3 / b_pyramid=2 / b_adapt=1 / b_bias=0 / direct=3 / weightb=1 / open_gop=0 / weightp=2 / keyint=240 / keyint_min=24 / scenecut=40 / intra_refresh=0 / rc_lookahead=50 / rc=abr / mbtree=1 / bitrate=3500 / ratetol=1.0 / qcomp=0.60 / qpmin=0 / qpmax=69 / qpstep=4 / vbv_maxrate=62500 / vbv_bufsize=78125 / nal_hrd=none / filler=0 / ip_ratio=1.40 / aq=1:1.00
    Default                     : Yes
    Forced                      : No
    Color range                 : Limited
    Color primaries             : BT.709
    Transfer characteristics    : BT.709
    Matrix coefficients         : BT.709

    Audio #1
    ID                          : 2
    Format                      : AC-3
    Format/Info                 : Audio Coding 3
    Commercial name             : Dolby Digital
    Codec ID                    : A_AC3
    Duration                    : 1 h 14 min
    Bit rate mode               : Constant
    Bit rate                    : 640 kb/s
    Channel(s)                  : 6 channels
    Channel layout              : L R C LFE Ls Rs
    Sampling rate               : 48.0 kHz
    Frame rate                  : 31.250 FPS (1536 SPF)
    Compression mode            : Lossy
    Stream size                 : 341 MiB (13%)
    Language                    : Spanish
    Service kind                : Complete Main
    Default                     : Yes
    Forced                      : No

    Audio #2
    ID                          : 3
    Format                      : AC-3
    Format/Info                 : Audio Coding 3
    Commercial name             : Dolby Digital
    Codec ID                    : A_AC3
    Duration                    : 1 h 14 min
    Bit rate mode               : Constant
    Bit rate                    : 640 kb/s
    Channel(s)                  : 6 channels
    Channel layout              : L R C LFE Ls Rs
    Sampling rate               : 48.0 kHz
    Frame rate                  : 31.250 FPS (1536 SPF)
    Compression mode            : Lossy
    Delay relative to video     : -5 ms
    Stream size                 : 341 MiB (13%)
    Language                    : English
    Service kind                : Complete Main
    Default                     : No
    Forced                      : No

    Text #1
    ID                          : 4
    Format                      : UTF-8
    Codec ID                    : S_TEXT/UTF8
    Codec ID/Info               : UTF-8 Plain Text
    Duration                    : 1 h 13 min
    Bit rate                    : 51 b/s
    Count of elements           : 930
    Stream size                 : 28.0 KiB (0%)
    Language                    : Spanish
    Default                     : No
    Forced                      : No

    Text #2
    ID                          : 5
    Format                      : UTF-8
    Codec ID                    : S_TEXT/UTF8
    Codec ID/Info               : UTF-8 Plain Text
    Duration                    : 1 h 12 min
    Bit rate                    : 0 b/s
    Count of elements           : 4
    Stream size                 : 84.0 Bytes (0%)
    Title                       : Forzados
    Language                    : Spanish
    Default                     : Yes
    Forced                      : No

    Menu
    00:00:00.000                : :Chapter 1
    00:01:23.166                : :Chapter 2
    00:04:20.719                : :Chapter 3
    00:07:37.415                : :Chapter 4
    00:10:15.240                : :Chapter 5
    00:13:29.142                : :Chapter 6
    00:17:39.308                : :Chapter 7
    00:22:07.827                : :Chapter 8
    00:23:32.953                : :Chapter 9
    00:26:05.731                : :Chapter 10
    00:27:55.174                : :Chapter 11
    00:31:00.150                : :Chapter 12
    00:33:32.511                : :Chapter 13
    00:36:49.040                : :Chapter 14
    00:38:55.708                : :Chapter 15
    00:42:02.103                : :Chapter 16
    00:44:11.983                : :Chapter 17
    00:48:23.109                : :Chapter 18
    00:52:54.171                : :Chapter 19
    00:56:57.122                : :Chapter 20
    01:00:42.472                : :Chapter 21
    01:04:11.097                : :Chapter 22
    01:07:34.801                : :Chapter 23
    01:13:05.715                : :Chapter 24

  • Peso: 2.50 GiB

Sinopsis

Cenicienta vive con su madrastra y las dos hijas de ésta. Las tres le hacen la vida imposible y la tienen trabajando sin parar en las labores del hogar. Pero ella establece amistad con los animales de la casa, que le ayudarán a asistir al baile Real al que su madre no le permite ir.

Ficha técnica

Video trailer de la película

Enlaces de descarga

Rip de Bluray

Descargar La Cenicienta (1950) HD 1080p Latino – CMHDD




Aportes de DPeliculasHDmega la pass es:dpeliculashdmega.org Aportes de CinemaniaHD la pass es:cinemaniahdd.com

Películas relacionadas

descargar La Cenicienta (1950) HD 1080p Latino – CMHDD 1080p 1080p gratis, La Cenicienta (1950) HD 1080p Latino – CMHDD 1080p mega 1 link, La Cenicienta (1950) HD 1080p Latino – CMHDD 1080p pelicula completa, descargar La Cenicienta (1950) HD 1080p Latino – CMHDD 1080p gratis en mega.

La Cenicienta (1950) HD 1080p Latino – CMHDD pelicula full hd, La Cenicienta (1950) HD 1080p Latino – CMHDD mega latino, La Cenicienta (1950) HD 1080p Latino – CMHDD 4k latino, La Cenicienta (1950) HD 1080p Latino – CMHDD pelicula completa, La Cenicienta (1950) HD 1080p Latino – CMHDD descargar gratis, descargar La Cenicienta (1950) HD 1080p Latino – CMHDD pelicula latino, La Cenicienta (1950) HD 1080p Latino – CMHDD 1 link mega, La Cenicienta (1950) HD 1080p Latino – CMHDD 1 link google drive, La Cenicienta (1950) HD 1080p Latino – CMHDD hd 1080p latino.
Comentarios 0