×

¿Problemas para descargar con Mozilla, EDGE? Deshabilita la opción "Abrir vinculos en una pestaña nueva" tal como lo muestra ésta imagen.

La casa oscura (2021) WEB-DL 4K UHD HDR Latino

409 vistas

Información de La casa oscura (2021) WEB-DL 4K UHD HDR Latino

Datos de la película

  • Calidad: WEBDL
  • Audio: Español Latino AC3 5.1 WEB-DL - Ingles AC3 5.1 WEB-DL
  • Subtitulos: Español Latino SRT- FORZADOS SRT
  • Resolución: 3840x1600p
  • Formato: MKV
  • Codec: HEVC
  • Encoder: Melkor
  • Mediainfo: Clic para Mostrar Datos Ver
  • La Casa Oscura (2021) WEB UHD HDR Latino.mkv
    Format                      : Matroska
    Format version              : Version 4
    File size                   : 18.9 GiB
    Duration                    : 1 h 47 min
    Overall bit rate            : 25.3 Mb/s
    Movie name                  : CinemaniaHDD.Net
    Encoded date                : UTC 2021-10-06 03:39:02
    Writing application         : mkvmerge v56.1.0 ('My Friend') 64-bit
    Writing library             : libebml v1.4.2 + libmatroska v1.6.4
    Attachments                 : CINEMANIAHD.png

    Video
    ID                          : 1
    Format                      : HEVC
    Format/Info                 : High Efficiency Video Coding
    Format profile              : Main 10@L5@High
    HDR format                  : SMPTE ST 2086, HDR10 compatible
    Codec ID                    : V_MPEGH/ISO/HEVC
    Duration                    : 1 h 46 min
    Bit rate                    : 24.3 Mb/s
    Width                       : 3 840 pixels
    Height                      : 1 600 pixels
    Display aspect ratio        : 2.40:1
    Frame rate mode             : Constant
    Frame rate                  : 23.976 (24000/1001) FPS
    Color space                 : YUV
    Chroma subsampling          : 4:2:0 (Type 2)
    Bit depth                   : 10 bits
    Bits/(Pixel*Frame)          : 0.165
    Stream size                 : 18.2 GiB (96%)
    Title                       : Web 2160p HDR [CinemaniaHDD]
    Default                     : Yes
    Forced                      : No
    Color range                 : Limited
    Color primaries             : BT.2020
    Transfer characteristics    : PQ
    Matrix coefficients         : BT.2020 non-constant
    Mastering display color pri : BT.2020
    Mastering display luminance : min: 0.0050 cd/m2, max: 1000 cd/m2
    Maximum Content Light Level : 1232 cd/m2
    Maximum Frame-Average Light : 192 cd/m2

    Audio #1
    ID                          : 2
    Format                      : AC-3
    Format/Info                 : Audio Coding 3
    Commercial name             : Dolby Digital
    Codec ID                    : A_AC3
    Duration                    : 1 h 47 min
    Bit rate mode               : Constant
    Bit rate                    : 384 kb/s
    Channel(s)                  : 6 channels
    Channel layout              : L R C LFE Ls Rs
    Sampling rate               : 48.0 kHz
    Frame rate                  : 31.250 FPS (1536 SPF)
    Compression mode            : Lossy
    Stream size                 : 294 MiB (2%)
    Title                       : Español Latino [CinemaniaHDD]
    Language                    : Spanish
    Service kind                : Complete Main
    Default                     : Yes
    Forced                      : Yes

    Audio #2
    ID                          : 3
    Format                      : E-AC-3
    Format/Info                 : Enhanced AC-3
    Commercial name             : Dolby Digital Plus
    Codec ID                    : A_EAC3
    Duration                    : 1 h 46 min
    Bit rate mode               : Constant
    Bit rate                    : 640 kb/s
    Channel(s)                  : 6 channels
    Channel layout              : L R C LFE Ls Rs
    Sampling rate               : 48.0 kHz
    Frame rate                  : 31.250 FPS (1536 SPF)
    Compression mode            : Lossy
    Stream size                 : 490 MiB (3%)
    Title                       : Ingles [CinemaniaHDD]
    Language                    : English
    Service kind                : Complete Main
    Default                     : No
    Forced                      : No

    Text #1
    ID                          : 4
    Format                      : UTF-8
    Codec ID                    : S_TEXT/UTF8
    Codec ID/Info               : UTF-8 Plain Text
    Duration                    : 1 h 25 min
    Bit rate                    : 0 b/s
    Count of elements           : 12
    Stream size                 : 211 Bytes (0%)
    Title                       : Forzados-SRT [CinemaniaHDD]
    Language                    : Spanish
    Default                     : Yes
    Forced                      : Yes

    Text #2
    ID                          : 5
    Format                      : UTF-8
    Codec ID                    : S_TEXT/UTF8
    Codec ID/Info               : UTF-8 Plain Text
    Duration                    : 1 h 39 min
    Bit rate                    : 28 b/s
    Count of elements           : 814
    Stream size                 : 20.3 KiB (0%)
    Title                       : Español-SRT [CinemaniaHDD]
    Language                    : Spanish
    Default                     : No
    Forced                      : No

    Text #3
    ID                          : 6
    Format                      : UTF-8
    Codec ID                    : S_TEXT/UTF8
    Codec ID/Info               : UTF-8 Plain Text
    Duration                    : 1 h 39 min
    Bit rate                    : 30 b/s
    Count of elements           : 833
    Stream size                 : 21.9 KiB (0%)
    Title                       : Ingles-SRT [CinemaniaHDD]
    Language                    : English
    Default                     : No
    Forced                      : No

  • Peso: 18.9 GiB

Sinopsis

Descargar La casa oscura (2021) WEB-DL 4K UHD HDR Latino. Mientras intenta superar la inesperada muerte de su marido, Beth (Rebecca Hall) se queda a solas en una casa cerca de un lago especialmente diseñada para ella. Aunque hace todo lo posible por no perder la cordura, los sueños no tardan en aparecer. Las perturbadoras visiones de una presencia que llama por ella en la casa comienzan a ser cada vez más frecuentes. Aunque a la luz del día todo parece normal, Beth empieza lentamente a desesperarse, por lo que decide ignorar el consejo de sus amigos e investiga en sus pertenencias tratando de encontrar alguna respuesta. Allí se topa no sólo con secretos tan extraños como terribles, sino también con un misterio que está dispuesta a resolver.

Ficha técnica

Video trailer de la película

Enlaces de descarga

Rip de Bluray

Descargar La casa oscura (2021) WEB-DL 4K UHD HDR Latino




Aportes de DPeliculasHDmega la pass es:dpeliculashdmega.org Aportes de CinemaniaHD la pass es:cinemaniahdd.com Aportes recientes:cinemaniahdd.net
Guardado en : 4K HDR , 4K UHD , Suspenso , Terror

Películas relacionadas

  • 57 Seconds (2023) AMZN WEB-DL 1080p Latino

    57 Seconds (2023) AMZN WEB-DL 1080p Latino

    2023
    57 Seconds (2023) AMZN WEB-DL 1080p Latino

    1h 39m 2023

    Cuando un blogger de tecnología consigue una entrevista con un gurú de la tecnología y detiene un...

    Director: Taylor DiMarco

    Género: Acción

    Actores: Valerie E. Lamb

  • Jaque Mate (2024) AMZN 4K-HDR WEB-DL 2160p Latino

    Jaque Mate (2024) AMZN 4K-HDR WEB-DL 2160p Latino

    2024
    Jaque Mate (2024) AMZN 4K-HDR WEB-DL 2160p Latino

    1h 44m 2024

    Duque, un agente secreto internacional retirado hace años luego un traumático suceso, se ve obligado...

    Director: Jorge Nisco

    Género: 4K HDR

    Actores: Tsahi Halevi

  • The Beekeeper (2024) AMZN WEB-DL 1080p Latino

    The Beekeeper (2024) AMZN WEB-DL 1080p Latino

    2024
    The Beekeeper (2024) AMZN WEB-DL 1080p Latino

    1h 45m 2024

    La brutal campaña de venganza de Adam Clay adquiere tintes nacionales tras revelarse que es un antiguo...

    Director: Vanluke Watson

    Género: Acción

    Actores: Victor Perez

  • Shōgun (2024)  Temporada 1 WEB-DL 4K UHD HDR Latino

    Shōgun (2024) Temporada 1 WEB-DL 4K UHD HDR Latino

    2024
    Shōgun (2024) Temporada 1 WEB-DL 4K UHD HDR Latino

    0h 0m 2024

    Descargar Shōgun (2024) Temporada 1 WEB-DL 4K UHD HDR Latino. En el Japón del siglo XVII, el náufrago...

    Director: Rachel Kondo

    Género: 4K HDR

    Actores: Tommy Bastow

descargar La casa oscura (2021) WEB-DL 4K UHD HDR Latino WEBDL 1080p gratis, La casa oscura (2021) WEB-DL 4K UHD HDR Latino WEBDL mega 1 link, La casa oscura (2021) WEB-DL 4K UHD HDR Latino WEBDL pelicula completa, descargar La casa oscura (2021) WEB-DL 4K UHD HDR Latino WEBDL gratis en mega.

La casa oscura (2021) WEB-DL 4K UHD HDR Latino pelicula full hd, La casa oscura (2021) WEB-DL 4K UHD HDR Latino mega latino, La casa oscura (2021) WEB-DL 4K UHD HDR Latino 4k latino, La casa oscura (2021) WEB-DL 4K UHD HDR Latino pelicula completa, La casa oscura (2021) WEB-DL 4K UHD HDR Latino descargar gratis, descargar La casa oscura (2021) WEB-DL 4K UHD HDR Latino pelicula latino, La casa oscura (2021) WEB-DL 4K UHD HDR Latino 1 link mega, La casa oscura (2021) WEB-DL 4K UHD HDR Latino 1 link google drive, La casa oscura (2021) WEB-DL 4K UHD HDR Latino hd 1080p latino.
Comentarios 0