La casa oscura (2021) PLACEBO Full HD 1080p Latino

51 vistas
1 estrella2 estrellas3 estrellas4 estrellas5 estrellas (Ninguna valoración todavía)
Cargando...

Información de La casa oscura (2021) PLACEBO Full HD 1080p Latino

Datos de la película

  • Calidad: Full 1080p
  • Audio: Español Latino AC3 5.1 BLURAY - Ingles DTS 5.1 BLURAY
  • Subtitulos: Español Latino PGS - Ingles PGS
  • Resolución: 1920x1080p
  • Formato: MKV
  • Codec: H.264
  • Encoder: Melkor
  • Mediainfo: Clic para Mostrar Datos Ver
  • La casa oscura (2021) PLACEBO Full HD 1080p Latino.mkv
    Format                      : Matroska
    Format version              : Version 4
    File size                   : 6.06 GiB
    Duration                    : 1 h 47 min
    Overall bit rate            : 8 106 kb/s
    Movie name                  : The Night House (2021) CinemaniaHDD.Net
    Encoded date                : UTC 2021-10-16 17:41:46
    Writing application         : mkvmerge v56.1.0 ('My Friend') 64-bit
    Writing library             : libebml v1.4.2 + libmatroska v1.6.4
    Attachments                 : CINEMANIAHD.png

    Video
    ID                          : 1
    Format                      : AVC
    Format/Info                 : Advanced Video Codec
    Format profile              : High@L4.1
    Format settings             : CABAC / 4 Ref Frames
    Format settings, CABAC      : Yes
    Format settings, Reference  : 4 frames
    Codec ID                    : V_MPEG4/ISO/AVC
    Duration                    : 1 h 47 min
    Bit rate                    : 5 937 kb/s
    Width                       : 1 920 pixels
    Height                      : 1 080 pixels
    Display aspect ratio        : 16:9
    Frame rate mode             : Constant
    Frame rate                  : 23.976 (24000/1001) FPS
    Color space                 : YUV
    Chroma subsampling          : 4:2:0
    Bit depth                   : 8 bits
    Scan type                   : Progressive
    Bits/(Pixel*Frame)          : 0.119
    Stream size                 : 4.44 GiB (73%)
    Title                       : Full HD1080p [CinemaniaHDD]
    Writing library             : x264 core 163 r3059 b684ebe0
    Encoding settings           : cabac=1 / ref=4 / deblock=1:0:0 / analyse=0x3:0x133 / me=tesa / subme=11 / psy=1 / psy_rd=1.00:0.00 / mixed_ref=1 / me_range=24 / chroma_me=1 / trellis=2 / 8x8dct=1 / cqm=0 / deadzone=21,11 / fast_pskip=0 / chroma_qp_offset=-2 / threads=24 / lookahead_threads=6 / sliced_threads=0 / nr=0 / decimate=1 / interlaced=0 / bluray_compat=0 / constrained_intra=0 / bframes=16 / b_pyramid=2 / b_adapt=2 / b_bias=0 / direct=3 / weightb=1 / open_gop=0 / weightp=2 / keyint=240 / keyint_min=24 / scenecut=40 / intra_refresh=0 / rc_lookahead=60 / rc=crf / mbtree=1 / crf=18.0 / qcomp=0.60 / qpmin=0 / qpmax=69 / qpstep=4 / vbv_maxrate=62500 / vbv_bufsize=78125 / crf_max=0.0 / nal_hrd=none / filler=0 / ip_ratio=1.40 / aq=1:1.00
    Default                     : Yes
    Forced                      : Yes
    Color range                 : Limited
    Color primaries             : BT.709
    Transfer characteristics    : BT.709
    Matrix coefficients         : BT.709

    Audio #1
    ID                          : 2
    ID in the original source m : 4355 (0x1103)
    Format                      : AC-3
    Format/Info                 : Audio Coding 3
    Commercial name             : Dolby Digital
    Codec ID                    : A_AC3
    Duration                    : 1 h 47 min
    Bit rate mode               : Constant
    Bit rate                    : 640 kb/s
    Channel(s)                  : 6 channels
    Channel layout              : L R C LFE Ls Rs
    Sampling rate               : 48.0 kHz
    Frame rate                  : 31.250 FPS (1536 SPF)
    Compression mode            : Lossy
    Stream size                 : 490 MiB (8%)
    Title                       : Español Latino [CinemaniaHDD]
    Language                    : Spanish
    Service kind                : Complete Main
    Default                     : Yes
    Forced                      : Yes
    Original source medium      : Blu-ray

    Audio #2
    ID                          : 3
    Format                      : DTS
    Format/Info                 : Digital Theater Systems
    Codec ID                    : A_DTS
    Duration                    : 1 h 47 min
    Bit rate mode               : Constant
    Bit rate                    : 1 509 kb/s
    Channel(s)                  : 6 channels
    Channel layout              : C L R Ls Rs LFE
    Sampling rate               : 48.0 kHz
    Frame rate                  : 93.750 FPS (512 SPF)
    Bit depth                   : 24 bits
    Compression mode            : Lossy
    Stream size                 : 1.13 GiB (19%)
    Title                       : Ingles [CinemaniaHDD]
    Language                    : English
    Default                     : No
    Forced                      : No

    Text #1
    ID                          : 4
    ID in the original source m : 4612 (0x1204)
    Format                      : PGS
    Muxing mode                 : zlib
    Codec ID                    : S_HDMV/PGS
    Codec ID/Info               : Picture based subtitle format used on BDs/HD-DVDs
    Duration                    : 1 h 25 min
    Bit rate                    : 286 b/s
    Count of elements           : 24
    Stream size                 : 179 KiB (0%)
    Title                       : Forzados-PGS [CinemaniaHDD]
    Language                    : Spanish
    Default                     : No
    Forced                      : No
    Original source medium      : Blu-ray

    Text #2
    ID                          : 5
    ID in the original source m : 4610 (0x1202)
    Format                      : PGS
    Muxing mode                 : zlib
    Codec ID                    : S_HDMV/PGS
    Codec ID/Info               : Picture based subtitle format used on BDs/HD-DVDs
    Duration                    : 1 h 39 min
    Bit rate                    : 19.3 kb/s
    Count of elements           : 1628
    Stream size                 : 13.7 MiB (0%)
    Title                       : Español-PGS [CinemaniaHDD]
    Language                    : Spanish
    Default                     : No
    Forced                      : No
    Original source medium      : Blu-ray

    Text #3
    ID                          : 6
    ID in the original source m : 4608 (0x1200)
    Format                      : PGS
    Muxing mode                 : zlib
    Codec ID                    : S_HDMV/PGS
    Codec ID/Info               : Picture based subtitle format used on BDs/HD-DVDs
    Duration                    : 1 h 40 min
    Bit rate                    : 29.0 kb/s
    Count of elements           : 2342
    Stream size                 : 20.9 MiB (0%)
    Title                       : Ingles-PGS [CinemaniaHDD]
    Language                    : English
    Default                     : No
    Forced                      : No
    Original source medium      : Blu-ray

    Text #4
    ID                          : 7
    Format                      : UTF-8
    Codec ID                    : S_TEXT/UTF8
    Codec ID/Info               : UTF-8 Plain Text
    Duration                    : 1 h 25 min
    Bit rate                    : 0 b/s
    Count of elements           : 12
    Stream size                 : 213 Bytes (0%)
    Title                       : Forzados-SRT [CinemaniaHDD]
    Language                    : Spanish
    Default                     : Yes
    Forced                      : Yes

    Text #5
    ID                          : 8
    Format                      : UTF-8
    Codec ID                    : S_TEXT/UTF8
    Codec ID/Info               : UTF-8 Plain Text
    Duration                    : 1 h 39 min
    Bit rate                    : 28 b/s
    Count of elements           : 814
    Stream size                 : 20.3 KiB (0%)
    Title                       : Español-SRT [CinemaniaHDD]
    Language                    : Spanish
    Default                     : No
    Forced                      : No

    Menu
    00:00:00.000                : Chapter 01
    00:03:41.387                : Chapter 02
    00:08:08.779                : Chapter 03
    00:15:38.270                : Chapter 04
    00:21:15.482                : Chapter 05
    00:24:03.608                : Chapter 06
    00:33:32.635                : Chapter 07
    00:38:48.117                : Chapter 08
    00:42:51.777                : Chapter 09
    00:47:48.699                : Chapter 10
    00:52:50.250                : Chapter 11
    00:56:07.238                : Chapter 12
    01:00:40.803                : Chapter 13
    01:05:21.250                : Chapter 14
    01:09:02.847                : Chapter 15
    01:14:59.453                : Chapter 16
    01:18:13.021                : Chapter 17
    01:23:28.878                : Chapter 18
    01:27:40.296                : Chapter 19
    01:32:13.861                : Chapter 20
    01:33:52.918                : Chapter 21
    01:35:02.363                : Chapter 22
    01:39:19.536                : Chapter 23
    01:41:26.580                : Chapter 24

  • Peso: 6.06 GiB

Sinopsis

Descargar La casa oscura (2021) PLACEBO Full HD 1080p Latino. Mientras intenta superar la inesperada muerte de su marido, Beth (Rebecca Hall) se queda a solas en una casa cerca de un lago especialmente diseñada para ella. Aunque hace todo lo posible por no perder la cordura, los sueños no tardan en aparecer. Las perturbadoras visiones de una presencia que llama por ella en la casa comienzan a ser cada vez más frecuentes. Aunque a la luz del día todo parece normal, Beth empieza lentamente a desesperarse, por lo que decide ignorar el consejo de sus amigos e investiga en sus pertenencias tratando de encontrar alguna respuesta. Allí se topa no sólo con secretos tan extraños como terribles, sino también con un misterio que está dispuesta a resolver.

Ficha técnica

Video trailer de la película

Enlaces de descarga

Rip de Bluray

Descargar La casa oscura (2021) PLACEBO Full HD 1080p Latino




Aportes de DPeliculasHDmega la pass es:dpeliculashdmega.org Aportes de CinemaniaHD la pass es:cinemaniahdd.com

Películas relacionadas

La casa oscura (2021) PLACEBO Full HD 1080p Latino pelicula full hd, La casa oscura (2021) PLACEBO Full HD 1080p Latino mega latino, La casa oscura (2021) PLACEBO Full HD 1080p Latino 4k latino, La casa oscura (2021) PLACEBO Full HD 1080p Latino pelicula completa, La casa oscura (2021) PLACEBO Full HD 1080p Latino descargar gratis, descargar La casa oscura (2021) PLACEBO Full HD 1080p Latino pelicula latino, La casa oscura (2021) PLACEBO Full HD 1080p Latino 1 link mega, La casa oscura (2021) PLACEBO Full HD 1080p Latino 1 link google drive, La casa oscura (2021) PLACEBO Full HD 1080p Latino hd 1080p latino.
Comentarios 0