×

¿Problemas para descargar con Mozilla, EDGE? Deshabilita la opción "Abrir vinculos en una pestaña nueva" tal como lo muestra ésta imagen.

La Casa Gucci (2021) WEB-DL 4K UHD HDR Latino

784 vistas

Información de La Casa Gucci (2021) WEB-DL 4K UHD HDR Latino

Datos de la película

  • Calidad: WEBDL
  • Audio: Español Latino AC3 5.1 WEB-DL - Ingles AC3 5.1 WEB-DL
  • Subtitulos: Español Latino SRT- FORZADOS SRT
  • Resolución: 3840x1600p
  • Formato: MKV
  • Codec: HEVC
  • Encoder: Melkor
  • Mediainfo: Clic para Mostrar Datos Ver
  • La Casa Gucci (2021) WEB UHD HDR Latino.mkv
    Format                      : Matroska
    Format version              : Version 4
    File size                   : 17.0 GiB
    Duration                    : 2 h 37 min
    Overall bit rate            : 15.4 Mb/s
    Movie name                  : House Of Gucci (2021) CinemaniaHDD.Net
    Encoded date                : UTC 2022-02-02 05:35:11
    Writing application         : mkvmerge v56.1.0 ('My Friend') 64-bit
    Writing library             : libebml v1.4.2 + libmatroska v1.6.4
    Attachments                 : CINEMANIAHD.png

    Video
    ID                          : 1
    Format                      : HEVC
    Format/Info                 : High Efficiency Video Coding
    Format profile              : Main 10@L5@High
    HDR format                  : SMPTE ST 2086, HDR10 compatible
    Codec ID                    : V_MPEGH/ISO/HEVC
    Duration                    : 2 h 37 min
    Bit rate                    : 14.3 Mb/s
    Width                       : 3 840 pixels
    Height                      : 1 600 pixels
    Display aspect ratio        : 2.40:1
    Frame rate mode             : Constant
    Frame rate                  : 23.976 (24000/1001) FPS
    Color space                 : YUV
    Chroma subsampling          : 4:2:0 (Type 2)
    Bit depth                   : 10 bits
    Bits/(Pixel*Frame)          : 0.097
    Stream size                 : 15.7 GiB (93%)
    Title                       : Web 2160p HDR [CinemaniaHDD]
    Default                     : Yes
    Forced                      : No
    Color range                 : Limited
    Color primaries             : BT.2020
    Transfer characteristics    : PQ
    Matrix coefficients         : BT.2020 non-constant
    Mastering display color pri : BT.2020
    Mastering display luminance : min: 0.0050 cd/m2, max: 1000 cd/m2
    Maximum Content Light Level : 955 cd/m2
    Maximum Frame-Average Light : 346 cd/m2

    Audio #1
    ID                          : 2
    Format                      : AC-3
    Format/Info                 : Audio Coding 3
    Commercial name             : Dolby Digital
    Codec ID                    : A_AC3
    Duration                    : 2 h 37 min
    Bit rate mode               : Constant
    Bit rate                    : 384 kb/s
    Channel(s)                  : 6 channels
    Channel layout              : L R C LFE Ls Rs
    Sampling rate               : 48.0 kHz
    Frame rate                  : 31.250 FPS (1536 SPF)
    Compression mode            : Lossy
    Delay relative to video     : 27 ms
    Stream size                 : 433 MiB (2%)
    Title                       : Español Latino [CinemaniaHDD]
    Language                    : Spanish
    Service kind                : Complete Main
    Default                     : Yes
    Forced                      : Yes

    Audio #2
    ID                          : 3
    Format                      : E-AC-3 JOC
    Format/Info                 : Enhanced AC-3 with Joint Object Coding
    Commercial name             : Dolby Digital Plus with Dolby Atmos
    Codec ID                    : A_EAC3
    Duration                    : 2 h 37 min
    Bit rate mode               : Constant
    Bit rate                    : 768 kb/s
    Channel(s)                  : 6 channels
    Channel layout              : L R C LFE Ls Rs
    Sampling rate               : 48.0 kHz
    Frame rate                  : 31.250 FPS (1536 SPF)
    Compression mode            : Lossy
    Stream size                 : 867 MiB (5%)
    Title                       : Ingles [CinemaniaHDD]
    Language                    : English
    Service kind                : Complete Main
    Default                     : No
    Forced                      : No
    Complexity index            : 16
    Number of dynamic objects   : 15
    Bed channel count           : 1 channel
    Bed channel configuration   : LFE

    Text #1
    ID                          : 4
    Format                      : UTF-8
    Codec ID                    : S_TEXT/UTF8
    Codec ID/Info               : UTF-8 Plain Text
    Duration                    : 2 h 28 min
    Bit rate                    : 1 b/s
    Count of elements           : 52
    Stream size                 : 1.68 KiB (0%)
    Title                       : Forzados-SRT [CinemaniaHDD]
    Language                    : Spanish
    Default                     : Yes
    Forced                      : Yes

    Text #2
    ID                          : 5
    Format                      : UTF-8
    Codec ID                    : S_TEXT/UTF8
    Codec ID/Info               : UTF-8 Plain Text
    Duration                    : 2 h 36 min
    Bit rate                    : 44 b/s
    Count of elements           : 1903
    Stream size                 : 51.4 KiB (0%)
    Title                       : Español-SRT [CinemaniaHDD]
    Language                    : Spanish
    Default                     : No
    Forced                      : No

    Text #3
    ID                          : 6
    Format                      : UTF-8
    Codec ID                    : S_TEXT/UTF8
    Codec ID/Info               : UTF-8 Plain Text
    Duration                    : 2 h 30 min
    Bit rate                    : 47 b/s
    Count of elements           : 1972
    Stream size                 : 52.3 KiB (0%)
    Title                       : Ingles-SRT [CinemaniaHDD]
    Language                    : English
    Default                     : No
    Forced                      : No

    Menu
    00:00:00.000                : Chapter 1
    00:05:06.000                : Chapter 2
    00:12:20.000                : Chapter 3
    00:18:13.000                : Chapter 4
    00:25:52.000                : Chapter 5
    00:33:38.000                : Chapter 6
    00:39:30.000                : Chapter 7
    00:44:38.000                : Chapter 8
    00:51:30.000                : Chapter 9
    00:57:17.000                : Chapter 10
    01:05:06.000                : Chapter 11
    01:10:13.000                : Chapter 12
    01:17:32.000                : Chapter 13
    01:24:23.000                : Chapter 14
    01:30:39.000                : Chapter 15
    01:36:45.000                : Chapter 16
    01:43:38.000                : Chapter 17
    01:49:31.000                : Chapter 18
    01:55:57.000                : Chapter 19
    02:02:54.000                : Chapter 20
    02:10:43.000                : Chapter 21
    02:14:21.000                : Chapter 22
    02:22:03.000                : Chapter 23
    02:31:04.000                : Chapter 24

  • Peso: 17.0 GiB

Sinopsis

Descargar La Casa Gucci (2021) WEB-DL 4K UHD HDR Latino. Drama criminal en torno al asesinato en 1995 de Maurizio Gucci, nieto del fundador del imperio de la moda Gucci, que apareció asesinado por orden de su exmujer Patrizia Reggiani, conocida como la «viuda negra de Italia».

Ficha técnica

Video trailer de la película

Enlaces de descarga

Rip de Bluray

Descargar La Casa Gucci (2021) WEB-DL 4K UHD HDR Latino




Aportes de DPeliculasHDmega la pass es:dpeliculashdmega.org Aportes de CinemaniaHD la pass es:cinemaniahdd.com
Guardado en : 4K HDR , 4K UHD , Crimen , Drama , Suspenso

Películas relacionadas

La Casa Gucci (2021) WEB-DL 4K UHD HDR Latino pelicula full hd, La Casa Gucci (2021) WEB-DL 4K UHD HDR Latino mega latino, La Casa Gucci (2021) WEB-DL 4K UHD HDR Latino 4k latino, La Casa Gucci (2021) WEB-DL 4K UHD HDR Latino pelicula completa, La Casa Gucci (2021) WEB-DL 4K UHD HDR Latino descargar gratis, descargar La Casa Gucci (2021) WEB-DL 4K UHD HDR Latino pelicula latino, La Casa Gucci (2021) WEB-DL 4K UHD HDR Latino 1 link mega, La Casa Gucci (2021) WEB-DL 4K UHD HDR Latino 1 link google drive, La Casa Gucci (2021) WEB-DL 4K UHD HDR Latino hd 1080p latino.
Comentarios 0