La casa con un reloj en sus paredes (2018) Web-DL 1080p Latino

2.672 vistas
1 estrella2 estrellas3 estrellas4 estrellas5 estrellas (1 votos, promedio: 5,00 de 5)
Cargando…

Información de La casa con un reloj en sus paredes (2018) Web-DL 1080p Latino

Datos de la película

  • Calidad: WEBDL
  • Audio: Español Latino AC3 2.0 iTunes - Ingles AC3 5.1 iTunes
  • Subtitulos: Español Latino SRT- FORZADOS SRT
  • Resolución: 1920x800p
  • Formato: MKV
  • Codec: H.264
  • Encoder: CinefiloCool
  • Mediainfo: Clic para Mostrar Datos Ver
  • The House With a Clock In Its Walls (2018) WEBDL 1080p Latino.mkv
    Format                      : Matroska
    Format version              : Version 4 / Version 2
    File size                   : 3.81 GiB
    Duration                    : 1 h 45 min
    Overall bit rate            : 5 187 kb/s
    Movie name                  : CinemaniaHDD.net
    Encoded date                : UTC 2018-11-27 07:04:20
    Writing application         : mkvmerge v25.0.0 ('Prog Noir') 64-bit
    Writing library             : libebml v1.3.6 + libmatroska v1.4.9

    Video
    ID                          : 1
    Format                      : AVC
    Format/Info                 : Advanced Video Codec
    Format profile              : High@L4
    Format settings             : CABAC / 5 Ref Frames
    Format settings, CABAC      : Yes
    Format settings, RefFrames  : 5 frames
    Codec ID                    : V_MPEG4/ISO/AVC
    Duration                    : 1 h 45 min
    Bit rate                    : 4 545 kb/s
    Width                       : 1 920 pixels
    Height                      : 800 pixels
    Display aspect ratio        : 2.40:1
    Frame rate mode             : Constant
    Frame rate                  : 23.976 (23976/1000) FPS
    Color space                 : YUV
    Chroma subsampling          : 4:2:0
    Bit depth                   : 8 bits
    Scan type                   : Progressive
    Bits/(Pixel*Frame)          : 0.123
    Stream size                 : 3.34 GiB (88%)
    Language                    : English
    Default                     : Yes
    Forced                      : No
    Color range                 : Limited
    Color primaries             : BT.709
    Transfer characteristics    : BT.709
    Matrix coefficients         : BT.709

    Audio #1
    ID                          : 2
    Format                      : AC-3
    Format/Info                 : Audio Coding 3
    Format settings, Endianness : Big
    Codec ID                    : A_AC3
    Duration                    : 1 h 45 min
    Bit rate mode               : Constant
    Bit rate                    : 256 kb/s
    Channel(s)                  : 2 channels
    Channel positions           : Front: L R
    Sampling rate               : 48.0 kHz
    Frame rate                  : 31.250 FPS (1536 SPF)
    Bit depth                   : 16 bits
    Compression mode            : Lossy
    Delay relative to video     : -42 ms
    Stream size                 : 192 MiB (5%)
    Language                    : Spanish
    Service kind                : Complete Main
    Default                     : Yes
    Forced                      : No

    Audio #2
    ID                          : 4
    Format                      : AC-3
    Format/Info                 : Audio Coding 3
    Format settings, Endianness : Big
    Codec ID                    : A_AC3
    Duration                    : 1 h 45 min
    Bit rate mode               : Constant
    Bit rate                    : 384 kb/s
    Channel(s)                  : 6 channels
    Channel positions           : Front: L C R, Side: L R, LFE
    Sampling rate               : 48.0 kHz
    Frame rate                  : 31.250 FPS (1536 SPF)
    Bit depth                   : 16 bits
    Compression mode            : Lossy
    Delay relative to video     : -42 ms
    Stream size                 : 289 MiB (7%)
    Language                    : English
    Service kind                : Complete Main
    Default                     : No
    Forced                      : No

    Text #1
    ID                          : 3
    Format                      : UTF-8
    Codec ID                    : S_TEXT/UTF8
    Codec ID/Info               : UTF-8 Plain Text
    Duration                    : 1 h 44 min
    Bit rate                    : 50 b/s
    Count of elements           : 1252
    Stream size                 : 38.7 KiB (0%)
    Language                    : Spanish
    Default                     : Yes
    Forced                      : No

    Text #2
    ID                          : 5
    Format                      : UTF-8
    Codec ID                    : S_TEXT/UTF8
    Codec ID/Info               : UTF-8 Plain Text
    Duration                    : 1 h 23 min
    Bit rate                    : 0 b/s
    Count of elements           : 18
    Stream size                 : 502 Bytes (0%)
    Language                    : Spanish
    Default                     : No
    Forced                      : No

    Menu
    00:00:00.000                : en:1
    00:05:33.708                : en:2
    00:12:00.635                : en:3
    00:16:42.791                : en:4
    00:22:42.984                : en:5
    00:27:44.534                : en:6
    00:31:12.490                : en:7
    00:34:59.341                : en:8
    00:39:06.837                : en:9
    00:44:36.416                : en:10
    00:49:57.028                : en:11
    00:53:45.214                : en:12
    00:58:08.726                : en:13
    01:05:03.055                : en:14
    01:11:45.832                : en:15
    01:16:00.628                : en:16
    01:21:34.795                : en:17
    01:26:40.975                : en:18
    01:33:35.638                : en:19
    01:39:04.925                : en:20

  • Peso: 3.81 GiB

Sinopsis

descargar La casa con un reloj en sus paredes (2018) Web-DL 1080p Latino, Mega, Google Drive. La historia gira en torno a la vida de un chico huérfano de nombre Lewis Barnavelt que se topa con un mundo hecho de pasadizos que se hallaba escondido en la vieja casa de su tía. Producida por Steven Spielberg y dirigida por Eli Roth, “La casa del reloj en la pared” es una mágica aventura para toda la familia protagonizada por Jack Black, Cate Blanchett, Kyle McLachlan, Colleen Camp y el pequeño Owen Vaccaro. Con guión de Eric Kripke, “La casa del reloj en la pared” está basada en el clásico infantil de 1973 escrito por John Bellairs e ilustrado por Edward Gorey.

Ficha técnica

  • Titulo original: The House with a Clock in Its Walls
  • Fecha de lanzamiento: 15-09-2018 (United States of America)
  • Director: Eli Roth
  • Género: Familia, Fantasía, Misterio, Suspense, Terror
  • Puntuación: 5.0 1 votos
  • Duración:
    1h 45m

Video trailer de la película

Enlaces de descarga

Rip de Bluray

Descargar La casa con un reloj en sus paredes (2018) Web-DL 1080p Latino




Aportes de DPeliculasHDmega la pass es:dpeliculashdmega.org Aportes de CinemaniaHD la pass es:cinemaniahdd.com
Guardado en : Familia , Fantasía , Misterio , Suspense , Terror

Películas relacionadas

  • Matar o morir (2018) 1080p Subtitulado

    2018
    Matar o morir (2018) 1080p Subtitulado

    5.0 1h 41m 2018

    Descargar Matar o morir [Peppermint] (2018) 1080p Subtitulado, Mega, Google Drive. LRiley North (Jennifer...

    Director: Pierre Morel

    Género: Acción

    Actores: YaYa Gosselin

  • La Chica de La Capa Roja (2011) Full 1080p Latino

    2011
    La Chica de La Capa Roja (2011) Full 1080p Latino

    4.7 1h 40m 2011

    Descargar La Chica de La Capa Roja (2011) Full 1080p Latino, Mega, Google Drive. La joven Valerie se...

    Director: Kimi Webber

    Género: Fantasía

    Actores: Virginia Madsen

  • La Chica de La Capa Roja (2011) 1080p Latino

    2011
    La Chica de La Capa Roja (2011) 1080p Latino

    0.0 1h 40m 2011

    Descargar La Chica de La Capa Roja (2011) 1080p Latino, Mega, Google Drive. La joven Valerie se encuentra...

    Director: Kimi Webber

    Género: Fantasía

    Actores: Virginia Madsen

  • Soy el número cuatro (2011) 1080p Latino

    2011
    Soy el número cuatro (2011) 1080p Latino

    0.0 1h 42m 2011

    Descargar Soy el número cuatro (2011) 1080p Latino, Mega, Google Drive. Aunque tenga la apariencia de...

    Director: D.J. Caruso

    Género: Acción

    Actores: Zoe Simek

Comentarios 2