La casa de papel (2017) Primera Temporada WEB-DL 1080p Español

817 vistas
1 estrella2 estrellas3 estrellas4 estrellas5 estrellas (Ninguna valoración todavía)
Cargando…

Información de La casa de papel (2017) Primera Temporada WEB-DL 1080p Español

Datos de la película

  • Calidad: WEBDL
  • Audio: Se especifica abajo de la Sinopsis
  • Subtitulos: No
  • Resolución: 1920x1080p
  • Formato: MKV
  • Codec: H.264
  • Encoder: Dracarys
  • Mediainfo: Clic para Mostrar Datos Ver
  • Format                                   : Matroska
    Format version                           : Version 4 / Version 2
    File size                                : 1.69 GiB
    Duration                                 : 1 h 14 min
    Overall bit rate mode                    : Variable
    Overall bit rate                         : 3 253 kb/s
    Movie name                               : CinemaniaHDD.net
    Encoded date                             : UTC 2018-09-12 22:13:58
    Writing application                      : mkvmerge v15.0.0 ('Duel with the Devil') 64-bit
    Writing library                          : libebml v1.3.5 + libmatroska v1.4.5

    Video
    ID                                       : 1
    Format                                   : AVC
    Format/Info                              : Advanced Video Codec
    Format profile                           : Main@L4
    Format settings                          : CABAC / 3 Ref Frames
    Format settings, CABAC                   : Yes
    Format settings, RefFrames               : 3 frames
    Codec ID                                 : V_MPEG4/ISO/AVC
    Duration                                 : 1 h 14 min
    Bit rate mode                            : Variable
    Bit rate                                 : 3 160 kb/s
    Maximum bit rate                         : 4 740 kb/s
    Width                                    : 1 920 pixels
    Height                                   : 1 080 pixels
    Display aspect ratio                     : 16:9
    Frame rate mode                          : Constant
    Frame rate                               : 25.000 FPS
    Color space                              : YUV
    Chroma subsampling                       : 4:2:0
    Bit depth                                : 8 bits
    Scan type                                : Progressive
    Bits/(Pixel*Frame)                       : 0.061
    Stream size                              : 1.64 GiB (97%)
    Writing library                          : x264 core 118
    Encoding settings                        : cabac=1 / ref=3 / deblock=1:0:0 / analyse=0x1:0x111 / me=umh / subme=10 / psy=1 / psy_rd=1.00:0.00 / mixed_ref=1 / me_range=24 / chroma_me=1 / trellis=2 / 8x8dct=0 / cqm=0 / deadzone=21,11 / fast_pskip=1 / chroma_qp_offset=-2 / threads=6 / sliced_threads=0 / nr=0 / decimate=1 / interlaced=0 / bluray_compat=0 / constrained_intra=0 / bframes=2 / b_pyramid=0 / b_adapt=2 / b_bias=0 / direct=3 / weightb=1 / open_gop=0 / weightp=2 / keyint=50 / keyint_min=26 / scenecut=0 / intra_refresh=0 / rc_lookahead=0 / rc=2pass / mbtree=1 / bitrate=3160 / ratetol=1.0 / qcomp=0.50 / qpmin=6 / qpmax=51 / qpstep=4 / cplxblur=20.0 / qblur=0.5 / vbv_maxrate=4740 / vbv_bufsize=6320 / nal_hrd=vbr / ip_ratio=1.40 / aq=1:1.00
    Language                                 : Spanish
    Default                                  : Yes
    Forced                                   : No

    Audio
    ID                                       : 2
    Format                                   : AAC
    Format/Info                              : Advanced Audio Codec
    Format profile                           : HE-AAC / LC
    Format settings                          : Explicit
    Codec ID                                 : A_AAC-2
    Duration                                 : 1 h 14 min
    Bit rate                                 : 96.0 kb/s
    Channel(s)                               : 2 channels
    Channel positions                        : Front: L R
    Sampling rate                            : 48.0 kHz / 24.0 kHz
    Frame rate                               : 23.438 FPS (1024 SPF)
    Compression mode                         : Lossy
    Stream size                              : 50.2 MiB (3%)
    Language                                 : Spanish
    Default                                  : Yes
    Forced                                   : No

    Text
    ID                                       : 3
    Format                                   : UTF-8
    Codec ID                                 : S_TEXT/UTF8
    Codec ID/Info                            : UTF-8 Plain Text
    Duration                                 : 1 h 13 min
    Bit rate                                 : 65 b/s
    Count of elements                        : 1118
    Stream size                              : 35.3 KiB (0%)
    Language                                 : Spanish
    Default                                  : No
    Forced                                   : No

  • Peso: 1.60 GiB X Capitulo Aproximadamente

Sinopsis

Un enigmático personaje llamado el Profesor planea algo grande: llevar a cabo el mayor atraco de la historia. Para ello recluta una banda de ocho personas que reúnen un único requisito, ninguno tiene nada que perder. Cinco meses de reclusión memorizando cada paso, cada detalle, cada probabilidad… y por fin, once días de encierro en la Fábrica Nacional de Moneda, rodeados de cuerpos de policía y con decenas de rehenes en su poder para saber si su apuesta suicida será todo o nada.

 

Audio Español: AAC 2.0 WEB-DL

Ficha técnica

  • Titulo original: La casa de papel
  • Fecha de lanzamiento: 02-05-2017 (ES)
  • Director: Álex Pina
  • Género: Crimen, Drama
  • Puntuación: 0.0 0 votos
  • Duración:
    1h 10m

Video trailer de la película

Enlaces de descarga

Rip de Bluray

Descargar La casa de papel (2017) Primera Temporada WEB-DL 1080p Español




Aportes de DPeliculasHDmega la pass es:dpeliculashdmega.org Aportes de CinemaniaHD la pass es:cinemaniahdd.com
Guardado en : Crimen , Drama

Películas relacionadas

  • Unbroken Path to Redemption (2018) 1080p Latino

    2018
    Unbroken Path to Redemption (2018) 1080p Latino

    0.0 1h 38m 2018

    Zamperini regresa a California donde se casó a regañadientes con Cynthia Applewhite mientras luchaba...

    Director: Harold Cronk

    Género: Drama

    Actores: Will Graham

  • Matar o morir (2018) 1080p Subtitulado

    2018
    Matar o morir (2018) 1080p Subtitulado

    5.0 1h 41m 2018

    Descargar Matar o morir [Peppermint] (2018) 1080p Subtitulado, Mega, Google Drive. LRiley North (Jennifer...

    Director: Pierre Morel

    Género: Acción

    Actores: YaYa Gosselin

  • Un pequeño favor (2018) 1080p Latino

    2018
    Un pequeño favor (2018) 1080p Latino

    5.0 1h 57m 2018

    Un pequeño favor  torrnet Stephanie es una joven madre bloguera de una ciudad pequeña cuya mejor amiga,...

    Director: Paul Feig

    Género: Crimen

    Actores: Zach Smadu

  • Crimenes Oscuros (2016) 1080p Latino

    2018
    Crimenes Oscuros (2016) 1080p Latino

    0.0 1h 32m 2018

    Descargar Crimenes Oscuros (2016) 1080p Latino, Mega Google Drive. Un detective de homicidios encuentra...

    Director: Alexandros Avranas

    Género: Crimen

    Actores: Zygmunt Jozefczak

  • Vikingos Temporada 5 (2017) WEB-DL Amazon 1080p Latino

    2017
    Vikingos Temporada 5 (2017) WEB-DL Amazon 1080p Latino

    3.0 0h 44m 2017

    Sigue las aventuras de Ragnar Lothbrok, el héroe más grande de su época. La serie narra las sagas...

    Director: Michael Hirst

    Género: Action & Adventure

    Actores: Moe Dunford

Comentarios 0