×

¿Problemas para descargar con Mozilla, EDGE? Deshabilita la opción "Abrir vinculos en una pestaña nueva" tal como lo muestra ésta imagen.

La casa de papel (2017) Primera Temporada REMUX 1080p Castellano – CMHDD

309 vistas

Información de La casa de papel (2017) Primera Temporada REMUX 1080p Castellano – CMHDD

Datos de la película

  • Calidad: Full 1080p
  • Audio: Se especifica abajo de la Sinopsis
  • Subtitulos: Español PGS
  • Resolución: 1920x1080p
  • Formato: MKV
  • Codec: H.264
  • Encoder: Dracarys
  • Mediainfo: Clic para Mostrar Datos Ver
  • Format                      : Matroska
    Format version              : Version 4
    File size                   : 10.6 GiB
    Duration                    : 1 h 20 min
    Overall bit rate mode       : Variable
    Overall bit rate            : 18.7 Mb/s
    Movie name                  : La casa de papel (2017) [S01E01] REMUX 1080p Castellano - CMHDD
    Encoded date                : UTC 2021-02-28 16:05:00
    Writing application         : mkvmerge v51.0.0 ('I Wish') 64-bit
    Writing library             : libebml v1.4.0 + libmatroska v1.6.2

    Video
    ID                          : 1
    Format                      : AVC
    Format/Info                 : Advanced Video Codec
    Format profile              : High@L4.1
    Format settings             : CABAC / 4 Ref Frames
    Format settings, CABAC      : Yes
    Format settings, Reference  : 4 frames
    Format settings, GOP        : M=3, N=25
    Codec ID                    : V_MPEG4/ISO/AVC
    Duration                    : 1 h 20 min
    Bit rate mode               : Variable
    Bit rate                    : 18.0 Mb/s
    Maximum bit rate            : 23.0 Mb/s
    Width                       : 1 920 pixels
    Height                      : 1 080 pixels
    Display aspect ratio        : 16:9
    Frame rate mode             : Variable
    Frame rate                  : 50.000 FPS
    Original frame rate         : 25.000 FPS
    Standard                    : PAL
    Color space                 : YUV
    Chroma subsampling          : 4:2:0
    Bit depth                   : 8 bits
    Scan type                   : Interlaced
    Scan type, store method     : Separated fields
    Scan order                  : Top Field First
    Bits/(Pixel*Frame)          : 0.174
    Stream size                 : 10.2 GiB (97%)
    Language                    : Spanish
    Default                     : Yes
    Forced                      : No
    Color range                 : Limited
    Color primaries             : BT.709
    Transfer characteristics    : BT.709
    Matrix coefficients         : BT.709

    Audio
    ID                          : 2
    Format                      : FLAC
    Format/Info                 : Free Lossless Audio Codec
    Codec ID                    : A_FLAC
    Duration                    : 1 h 20 min
    Bit rate mode               : Variable
    Bit rate                    : 630 kb/s
    Channel(s)                  : 2 channels
    Channel layout              : L R
    Sampling rate               : 48.0 kHz
    Frame rate                  : 11.719 FPS (4096 SPF)
    Bit depth                   : 16 bits
    Compression mode            : Lossless
    Stream size                 : 365 MiB (3%)
    Writing library             : libFLAC 1.2.1 (UTC 2007-09-17)
    Language                    : Spanish
    Default                     : Yes
    Forced                      : No

    Text
    ID                          : 3
    Format                      : PGS
    Muxing mode                 : zlib
    Codec ID                    : S_HDMV/PGS
    Codec ID/Info               : Picture based subtitle format used on BDs/HD-DVDs
    Duration                    : 1 h 20 min
    Bit rate                    : 52.1 kb/s
    Count of elements           : 2260
    Stream size                 : 30.1 MiB (0%)
    Language                    : Spanish
    Default                     : No
    Forced                      : No

    Menu
    00:00:00.000                : en:Chapter 1
    00:11:05.280                : en:Chapter 2
    00:12:08.640                : en:Chapter 3
    00:27:56.640                : en:Chapter 4
    00:46:42.240                : en:Chapter 5
    01:04:10.560                : en:Chapter 6
    01:19:19.200                : en:Chapter 7

  • Peso: 139 GiB

Sinopsis

La Casa de Papel narra lo que se espera que sea el atraco perfecto al Museo de la Fábrica Nacional de Moneda y Timbre. La mente que idea este plan es El Profesor, un hombre que recluta a siete personas para llevar a cabo el gran golpe. Tokio es una joven atracadora muy buscada por la policía, Berlín asume el papel de «el cabecilla», Moscú es el experto en perforaciones, Río es «el informático», Nairobi es la falsificadora, Denver es el hijo de Moscú y, como siempre, falta la fuerza bruta: Helsinki y Oslo.

La banda planea cada paso durante cinco meses, valoran todos los inconvenientes, todas las posibilidades y cuando llega el día, se encierran durante once días en la Fábrica Nacional de Moneda y Timbre con 67 rehenes. Su objetivo es salir de allí con su propio dinero de curso legal recién impreso y sin registrar, algo que será difícil ya que la policía ha sitiado el lugar. Tendrán que hacer todo el atraco con una condición: nada de relaciones entre los atracadores, algo que no llevan a rajatabla

 

Castellano: FLAC 2.0 630 kb/s

Ficha técnica

  • Titulo original: La casa de papel
  • Fecha de lanzamiento: 02-05-2017 (ES)
  • Director: Álex Pina
  • Género: Crimen, Drama

Video trailer de la película

Enlaces de descarga

Rip de Bluray

Descargar La casa de papel (2017) Primera Temporada REMUX 1080p Castellano – CMHDD


Aportes de DPeliculasHDmega la pass es:dpeliculashdmega.org Aportes de CinemaniaHD la pass es:cinemaniahdd.com
Guardado en : Crimen , Drama

Películas relacionadas

  • Stromboli (2022) NF WEB-DL 1080p Latino

    Stromboli (2022) NF WEB-DL 1080p Latino

    2022
    Stromboli (2022) NF WEB-DL 1080p Latino

    1h 26m 2022

    Descargar Stromboli (2022) NF WEB-DL 1080p Latino. Sara, una mujer que se ha divorciado recientemente,...

    Director: Michiel van Erp

    Género: Drama

    Actores: Tim McInnerny

  • Infiesto (2023) NF WEB-DL 1080p Castellano

    Infiesto (2023) NF WEB-DL 1080p Castellano

    2023
    Infiesto (2023) NF WEB-DL 1080p Castellano

    1h 36m 2023

    Descargar Infiesto (2023) NF WEB-DL 1080p Castellano. Mientras el coronavirus trastoca sus vidas, dos...

    Director: Patxi Amezcua

    Género: Crimen

    Actores: Luis Zahera

  • Espiritu Libre (2023) NF WEB-DL 1080p Latino

    Espiritu Libre (2023) NF WEB-DL 1080p Latino

    2023
    Espiritu Libre (2023) NF WEB-DL 1080p Latino

    1h 49m 2023

    Descargar Espiritu Libre (2023) NF WEB-DL 1080p Latino. La película se basa en la increíble historia...

    Director: Sarah Spillane

    Género: Aventura

    Actores: Vivien Turner

descargar La casa de papel (2017) Primera Temporada REMUX 1080p Castellano – CMHDD Full 1080p 1080p gratis, La casa de papel (2017) Primera Temporada REMUX 1080p Castellano – CMHDD Full 1080p mega 1 link, La casa de papel (2017) Primera Temporada REMUX 1080p Castellano – CMHDD Full 1080p pelicula completa, descargar La casa de papel (2017) Primera Temporada REMUX 1080p Castellano – CMHDD Full 1080p gratis en mega.

La casa de papel (2017) Primera Temporada REMUX 1080p Castellano – CMHDD pelicula full hd, La casa de papel (2017) Primera Temporada REMUX 1080p Castellano – CMHDD mega latino, La casa de papel (2017) Primera Temporada REMUX 1080p Castellano – CMHDD 4k latino, La casa de papel (2017) Primera Temporada REMUX 1080p Castellano – CMHDD pelicula completa, La casa de papel (2017) Primera Temporada REMUX 1080p Castellano – CMHDD descargar gratis, descargar La casa de papel (2017) Primera Temporada REMUX 1080p Castellano – CMHDD pelicula latino, La casa de papel (2017) Primera Temporada REMUX 1080p Castellano – CMHDD 1 link mega, La casa de papel (2017) Primera Temporada REMUX 1080p Castellano – CMHDD 1 link google drive, La casa de papel (2017) Primera Temporada REMUX 1080p Castellano – CMHDD hd 1080p latino.