×

¿Problemas para descargar con Mozilla, EDGE? Deshabilita la opción "Abrir vinculos en una pestaña nueva" tal como lo muestra ésta imagen.

La canción de los nombres olvidados (2019) REMUX 1080p Latino

170 vistas

Información de La canción de los nombres olvidados (2019) REMUX 1080p Latino

Datos de la película

  • Calidad: Full 1080p
  • Audio: Se especifica abajo de la Sinopsis
  • Subtitulos: Español Latino SRT- FORZADOS SRT
  • Resolución: 1920x1080p
  • Formato: MKV
  • Codec: H.264
  • Encoder: Melkor
  • Mediainfo: Clic para Mostrar Datos Ver
  • La Cancion De Los Nombres Olvidados (2019) REMUX 1080p Latino.mkv
    Format                      : Matroska
    Format version              : Version 4
    File size                   : 10.6 GiB
    Duration                    : 1 h 53 min
    Overall bit rate mode       : Variable
    Overall bit rate            : 13.4 Mb/s
    Movie name                  : The Song of Names (2019) CinemaniaHDD.Net
    Encoded date                : UTC 2022-05-18 04:18:48
    Writing application         : mkvmerge v56.1.0 ('My Friend') 64-bit
    Writing library             : libebml v1.4.2 + libmatroska v1.6.4
    Attachments                 : CINEMANIAHD.png

    Video
    ID                          : 1
    Format                      : AVC
    Format/Info                 : Advanced Video Codec
    Format profile              : High@L4.1
    Format settings             : CABAC / 2 Ref Frames
    Format settings, CABAC      : Yes
    Format settings, Reference  : 2 frames
    Codec ID                    : V_MPEG4/ISO/AVC
    Duration                    : 1 h 53 min
    Bit rate mode               : Variable
    Bit rate                    : 10.3 Mb/s
    Maximum bit rate            : 38.2 Mb/s
    Width                       : 1 920 pixels
    Height                      : 1 080 pixels
    Display aspect ratio        : 16:9
    Frame rate mode             : Constant
    Frame rate                  : 23.976 (24000/1001) FPS
    Color space                 : YUV
    Chroma subsampling          : 4:2:0
    Bit depth                   : 8 bits
    Scan type                   : Progressive
    Bits/(Pixel*Frame)          : 0.208
    Stream size                 : 8.19 GiB (77%)
    Title                       : REMUX HD1080p [CinemaniaHDD]
    Default                     : Yes
    Forced                      : Yes

    Audio #1
    ID                          : 2
    Format                      : AC-3
    Format/Info                 : Audio Coding 3
    Commercial name             : Dolby Digital
    Codec ID                    : A_AC3
    Duration                    : 1 h 53 min
    Bit rate mode               : Constant
    Bit rate                    : 640 kb/s
    Channel(s)                  : 6 channels
    Channel layout              : L R C LFE Ls Rs
    Sampling rate               : 48.0 kHz
    Frame rate                  : 31.250 FPS (1536 SPF)
    Compression mode            : Lossy
    Delay relative to video     : 4 ms
    Stream size                 : 518 MiB (5%)
    Title                       : Español Latino AC3 [CinemaniaHDD]
    Language                    : Spanish
    Service kind                : Complete Main
    Default                     : Yes
    Forced                      : Yes

    Audio #2
    ID                          : 3
    Format                      : DTS XLL
    Format/Info                 : Digital Theater Systems
    Commercial name             : DTS-HD Master Audio
    Codec ID                    : A_DTS
    Duration                    : 1 h 53 min
    Bit rate mode               : Variable
    Bit rate                    : 1 815 kb/s
    Channel(s)                  : 8 channels
    Channel layout              : C L R LFE Lb Rb Lss Rss
    Sampling rate               : 48.0 kHz
    Frame rate                  : 93.750 FPS (512 SPF)
    Bit depth                   : 16 bits
    Compression mode            : Lossless
    Stream size                 : 1.43 GiB (13%)
    Title                       : Ingles [CinemaniaHDD]
    Language                    : English
    Default                     : No
    Forced                      : No

    Audio #3
    ID                          : 4
    Format                      : E-AC-3
    Format/Info                 : Enhanced AC-3
    Commercial name             : Dolby Digital Plus
    Codec ID                    : A_EAC3
    Duration                    : 1 h 53 min
    Bit rate mode               : Constant
    Bit rate                    : 640 kb/s
    Channel(s)                  : 6 channels
    Channel layout              : L R C LFE Ls Rs
    Sampling rate               : 48.0 kHz
    Frame rate                  : 31.250 FPS (1536 SPF)
    Compression mode            : Lossy
    Delay relative to video     : 4 ms
    Stream size                 : 518 MiB (5%)
    Title                       : Español Latino EAC3 [CinemaniaHDD]
    Language                    : Spanish
    Service kind                : Complete Main
    Default                     : No
    Forced                      : No

    Text #1
    ID                          : 5
    Format                      : UTF-8
    Codec ID                    : S_TEXT/UTF8
    Codec ID/Info               : UTF-8 Plain Text
    Duration                    : 1 h 24 min
    Bit rate                    : 1 b/s
    Count of elements           : 43
    Stream size                 : 1.06 KiB (0%)
    Title                       : Forzados-SRT [CinemaniaHDD]
    Language                    : Spanish
    Default                     : Yes
    Forced                      : Yes

    Text #2
    ID                          : 6
    Format                      : UTF-8
    Codec ID                    : S_TEXT/UTF8
    Codec ID/Info               : UTF-8 Plain Text
    Duration                    : 1 h 52 min
    Bit rate                    : 42 b/s
    Count of elements           : 1011
    Stream size                 : 34.7 KiB (0%)
    Title                       : Español-SRT [CinemaniaHDD]
    Language                    : Spanish
    Default                     : No
    Forced                      : No

    Text #3
    ID                          : 7
    Format                      : PGS
    Muxing mode                 : zlib
    Codec ID                    : S_HDMV/PGS
    Codec ID/Info               : Picture based subtitle format used on BDs/HD-DVDs
    Duration                    : 1 h 45 min
    Bit rate                    : 25.1 kb/s
    Count of elements           : 2210
    Stream size                 : 18.9 MiB (0%)
    Title                       : Ingles [CinemaniaHDD]
    Language                    : English
    Default                     : No
    Forced                      : No

    Menu
    00:00:00.000                : Chapter 1
    00:00:00.209                : Chapter 2
    00:11:18.970                : Chapter 3
    00:18:12.967                : Chapter 4
    00:26:36.678                : Chapter 5
    00:32:04.673                : Chapter 6
    00:38:29.974                : Chapter 7
    00:42:44.771                : Chapter 8
    00:47:27.428                : Chapter 9
    00:54:01.029                : Chapter 10
    00:58:31.758                : Chapter 11
    01:04:42.629                : Chapter 12
    01:12:15.748                : Chapter 13
    01:21:08.655                : Chapter 14
    01:27:03.552                : Chapter 15
    01:34:58.109                : Chapter 16
    01:40:10.755                : Chapter 17
    01:45:26.278                : Chapter 18
    01:53:07.906                : Chapter 19

  • Peso: 10.6 GiB

Sinopsis

Descargar La canción de los nombres olvidados (2019) REMUX 1080p Latino. En pleno estallido de la Segunda Guerra Mundial, el pequeño Dovidl llega a Londres como refugiado judío desde su Polonia natal. Con solo 9 años es un prodigio del violín, lo que propicia su acogida en una destacada familia británica, que le integra como un hijo más y promociona sus estudios musicales.

Español Latino EAC3 & AC3 5.1 Web – Ingles DTS-HD 7.1 Bluray

Ficha técnica

  • Titulo original: The Song of Names
  • Fecha de lanzamiento: 25-12-2019 (Canada, Germany, Hungary, United Kingdom)
  • Director: François Girard
  • Género: Drama, Remux

Video trailer de la película

Enlaces de descarga

Rip de Bluray

Descargar La canción de los nombres olvidados (2019) REMUX 1080p Latino




Aportes de DPeliculasHDmega la pass es:dpeliculashdmega.org Aportes de CinemaniaHD la pass es:cinemaniahdd.com
Guardado en : Drama , Remux

Películas relacionadas

  • Mi amigo el dragón (2016) REMUX 1080p Latino

    Mi amigo el dragón (2016) REMUX 1080p Latino

    2016
    Mi amigo el dragón (2016) REMUX 1080p Latino

    1h 43m 2016

    Descargar Mi amigo el dragón (2016) REMUX 1080p Latino. Durante años el Sr. Meacham, un viejo tallador...

    Director: Joe Nolan

    Género: Aventura

    Actores: William J. Rawbone

  • El discurso del Rey (2010) 1080p Latino

    El discurso del Rey (2010) 1080p Latino

    2010
    El discurso del Rey (2010) 1080p Latino

    1h 58m 2010

    Descargar El discurso del Rey (2010) 1080p Latino. El duque de York se convirtió en rey de Gran Bretaña...

    Director: Tom Hooper

    Género: Drama

    Actores: Tony Earnshaw

  • El discurso del Rey (2010) Full HD 1080p Latino

    El discurso del Rey (2010) Full HD 1080p Latino

    2010
    El discurso del Rey (2010) Full HD 1080p Latino

    1h 58m 2010

    Descargar El discurso del Rey (2010) Full HD 1080p Latino. El duque de York se convirtió en rey de Gran...

    Director: Tom Hooper

    Género: Drama

    Actores: Tony Earnshaw

  • El discurso del Rey (2010) REMUX 1080p Latino

    El discurso del Rey (2010) REMUX 1080p Latino

    2010
    El discurso del Rey (2010) REMUX 1080p Latino

    1h 58m 2010

    Descargar El discurso del Rey (2010) REMUX 1080p Latino. El duque de York se convirtió en rey de Gran...

    Director: Tom Hooper

    Género: Drama

    Actores: Tony Earnshaw

descargar La canción de los nombres olvidados (2019) REMUX 1080p Latino Full 1080p 1080p gratis, La canción de los nombres olvidados (2019) REMUX 1080p Latino Full 1080p mega 1 link, La canción de los nombres olvidados (2019) REMUX 1080p Latino Full 1080p pelicula completa, descargar La canción de los nombres olvidados (2019) REMUX 1080p Latino Full 1080p gratis en mega.

La canción de los nombres olvidados (2019) REMUX 1080p Latino pelicula full hd, La canción de los nombres olvidados (2019) REMUX 1080p Latino mega latino, La canción de los nombres olvidados (2019) REMUX 1080p Latino 4k latino, La canción de los nombres olvidados (2019) REMUX 1080p Latino pelicula completa, La canción de los nombres olvidados (2019) REMUX 1080p Latino descargar gratis, descargar La canción de los nombres olvidados (2019) REMUX 1080p Latino pelicula latino, La canción de los nombres olvidados (2019) REMUX 1080p Latino 1 link mega, La canción de los nombres olvidados (2019) REMUX 1080p Latino 1 link google drive, La canción de los nombres olvidados (2019) REMUX 1080p Latino hd 1080p latino.
Comentarios 0