×

¿Problemas para descargar con Mozilla, EDGE? Deshabilita la opción "Abrir vinculos en una pestaña nueva" tal como lo muestra ésta imagen.

La Calle De La Navidad (2023) AMZN WEB-DL 1080p Latino

108 vistas

Información de La Calle De La Navidad (2023) AMZN WEB-DL 1080p Latino

Datos de la película

  • Calidad: WEBDL
  • Audio: Español Latino AC3 5.1 WEB-DL - Ingles AC3 5.1 WEB-DL
  • Subtitulos: Español Latino SRT- FORZADOS SRT
  • Resolución: 1920x800p
  • Formato: MKV
  • Codec: H.264
  • Encoder: Melkor
  • Mediainfo: Clic para Mostrar Datos Ver
  • La Calle De La Navidad (2023) AMZN WEB 1080p Latino.mkv
    Format                      : Matroska
    Format version              : Version 4
    File size                   : 8.10 GiB
    Duration                    : 2 h 0 min
    Overall bit rate            : 9 660 kb/s
    Movie name                  : Candy Cane Lane (2023) CinemaniaHDD.Net
    Encoded date                : UTC 2023-12-04 05:05:11
    Writing application         : mkvmerge v56.1.0 ('My Friend') 64-bit
    Writing library             : libebml v1.4.2 + libmatroska v1.6.4
    Attachments                 : CINEMANIAHD.png

    Video
    ID                          : 1
    Format                      : AVC
    Format/Info                 : Advanced Video Codec
    Format profile              : High@L4
    Format settings             : CABAC / 4 Ref Frames
    Format settings, CABAC      : Yes
    Format settings, Reference  : 4 frames
    Codec ID                    : V_MPEG4/ISO/AVC
    Duration                    : 2 h 0 min
    Bit rate mode               : Constant
    Bit rate                    : 7 801 kb/s
    Nominal bit rate            : 10 000 kb/s
    Width                       : 1 920 pixels
    Height                      : 800 pixels
    Display aspect ratio        : 2.40:1
    Frame rate mode             : Constant
    Frame rate                  : 24.000 FPS
    Color space                 : YUV
    Chroma subsampling          : 4:2:0
    Bit depth                   : 8 bits
    Scan type                   : Progressive
    Bits/(Pixel*Frame)          : 0.212
    Stream size                 : 6.54 GiB (81%)
    Title                       : Web HD1080p [CinemaniaHDD]
    Language                    : English
    Default                     : Yes
    Forced                      : Yes
    Color range                 : Limited
    Color primaries             : BT.709
    Transfer characteristics    : BT.709
    Matrix coefficients         : BT.709

    Audio #1
    ID                          : 2
    Format                      : AC-3
    Format/Info                 : Audio Coding 3
    Commercial name             : Dolby Digital
    Codec ID                    : A_AC3
    Duration                    : 2 h 0 min
    Bit rate mode               : Constant
    Bit rate                    : 640 kb/s
    Channel(s)                  : 6 channels
    Channel layout              : L R C LFE Ls Rs
    Sampling rate               : 48.0 kHz
    Frame rate                  : 31.250 FPS (1536 SPF)
    Compression mode            : Lossy
    Stream size                 : 549 MiB (7%)
    Title                       : Español Latino AC3 [CinemaniaHDD]
    Language                    : Spanish
    Service kind                : Complete Main
    Default                     : Yes
    Forced                      : Yes

    Audio #2
    ID                          : 3
    Format                      : E-AC-3
    Format/Info                 : Enhanced AC-3
    Commercial name             : Dolby Digital Plus
    Codec ID                    : A_EAC3
    Duration                    : 2 h 0 min
    Bit rate mode               : Constant
    Bit rate                    : 640 kb/s
    Channel(s)                  : 6 channels
    Channel layout              : L R C LFE Ls Rs
    Sampling rate               : 48.0 kHz
    Frame rate                  : 31.250 FPS (1536 SPF)
    Compression mode            : Lossy
    Stream size                 : 549 MiB (7%)
    Title                       : Español Latino EAC3 [CinemaniaHDD]
    Language                    : Spanish
    Service kind                : Complete Main
    Default                     : No
    Forced                      : No

    Audio #3
    ID                          : 4
    Format                      : E-AC-3 JOC
    Format/Info                 : Enhanced AC-3 with Joint Object Coding
    Commercial name             : Dolby Digital Plus with Dolby Atmos
    Codec ID                    : A_EAC3
    Duration                    : 2 h 0 min
    Bit rate mode               : Constant
    Bit rate                    : 576 kb/s
    Channel(s)                  : 6 channels
    Channel layout              : L R C LFE Ls Rs
    Sampling rate               : 48.0 kHz
    Frame rate                  : 31.250 FPS (1536 SPF)
    Compression mode            : Lossy
    Stream size                 : 495 MiB (6%)
    Title                       : Ingles [CinemaniaHDD]
    Language                    : English
    Service kind                : Complete Main
    Default                     : No
    Forced                      : No
    Complexity index            : 16
    Number of dynamic objects   : 15
    Bed channel count           : 1 channel
    Bed channel configuration   : LFE

    Text #1
    ID                          : 5
    Format                      : UTF-8
    Codec ID                    : S_TEXT/UTF8
    Codec ID/Info               : UTF-8 Plain Text
    Duration                    : 1 h 47 min
    Bit rate                    : 3 b/s
    Count of elements           : 101
    Stream size                 : 3.05 KiB (0%)
    Title                       : Forzados-SRT [CinemaniaHDD]
    Language                    : Spanish
    Default                     : Yes
    Forced                      : Yes

    Text #2
    ID                          : 6
    Format                      : UTF-8
    Codec ID                    : S_TEXT/UTF8
    Codec ID/Info               : UTF-8 Plain Text
    Duration                    : 1 h 56 min
    Bit rate                    : 62 b/s
    Count of elements           : 1966
    Stream size                 : 53.4 KiB (0%)
    Title                       : Español-SRT [CinemaniaHDD]
    Language                    : Spanish
    Default                     : No
    Forced                      : No

    Text #3
    ID                          : 7
    Format                      : UTF-8
    Codec ID                    : S_TEXT/UTF8
    Codec ID/Info               : UTF-8 Plain Text
    Duration                    : 1 h 53 min
    Bit rate                    : 84 b/s
    Count of elements           : 2264
    Stream size                 : 70.2 KiB (0%)
    Title                       : Ingles-SRT [CinemaniaHDD]
    Language                    : English
    Default                     : No
    Forced                      : No

    Menu
    00:00:00.000                : Studio Logo
    00:01:02.000                : Title Sequence
    00:01:20.000                : Scene 3
    00:02:27.000                : Scene 4
    00:04:06.000                : Scene 5
    00:04:42.000                : Scene 6
    00:05:23.000                : Scene 7
    00:06:30.000                : Scene 8
    00:07:07.000                : Scene 9
    00:07:39.000                : Scene 10
    00:08:13.000                : Scene 11
    00:08:50.000                : Scene 12
    00:09:25.000                : Scene 13
    00:13:23.000                : Scene 14
    00:14:59.000                : Scene 15
    00:20:27.000                : Scene 16
    00:21:54.000                : Scene 17
    00:23:41.000                : Scene 18
    00:26:20.000                : Scene 19
    00:26:58.000                : Scene 20
    00:27:33.000                : Scene 21
    00:28:18.000                : Scene 22
    00:29:08.000                : Scene 23
    00:29:49.000                : Scene 24
    00:30:33.000                : Scene 25
    00:31:28.000                : Scene 26
    00:32:29.000                : Scene 27
    00:33:25.000                : Scene 28
    00:34:00.000                : Scene 29
    00:34:38.000                : Scene 30
    00:36:37.000                : Scene 31
    00:39:30.000                : Scene 32
    00:42:11.000                : Scene 33
    00:43:20.000                : Scene 34
    00:44:32.000                : Scene 35
    00:45:53.000                : Scene 36
    00:50:20.000                : Scene 37
    00:58:38.000                : Scene 38
    01:00:19.000                : Scene 39
    01:01:08.000                : Scene 40
    01:03:18.000                : Scene 41
    01:03:54.000                : Scene 42
    01:04:23.000                : Scene 43
    01:05:56.000                : Scene 44
    01:06:12.000                : Scene 45
    01:06:54.000                : Scene 46
    01:07:46.000                : Scene 47
    01:08:38.000                : Scene 48
    01:09:11.000                : Scene 49
    01:09:27.000                : Scene 50
    01:10:39.000                : Scene 51
    01:11:35.000                : Scene 52
    01:13:14.000                : Scene 53
    01:14:47.000                : Scene 54
    01:15:35.000                : Scene 55
    01:18:20.000                : Scene 56
    01:19:09.000                : Scene 57
    01:19:59.000                : Scene 58
    01:20:53.000                : Scene 59
    01:21:45.000                : Scene 60
    01:23:31.000                : Scene 61
    01:24:13.000                : Scene 62
    01:28:25.000                : Scene 63
    01:29:08.000                : Scene 64
    01:29:40.000                : Scene 65
    01:30:44.000                : Scene 66
    01:31:19.000                : Scene 67
    01:31:50.000                : Scene 68
    01:32:31.000                : Scene 69
    01:33:09.000                : Scene 70
    01:33:52.000                : Scene 71
    01:34:33.000                : Scene 72
    01:35:04.000                : Scene 73
    01:36:28.000                : Scene 74
    01:37:07.000                : Scene 75
    01:39:27.000                : Scene 76
    01:40:42.000                : Scene 77
    01:42:51.000                : Scene 78
    01:43:45.000                : Scene 79
    01:45:31.000                : Scene 80
    01:46:45.000                : End Credits
    01:47:11.000                : Scene 82
    01:48:10.000                : End Credits

  • Peso: 8.10 GiB

Sinopsis

Descargar La Calle De La Navidad (2023) AMZN WEB-DL 1080p Latino. Comedia navideña en la que un hombre tiene la misión de ganar el concurso anual de decoración navideña de su barrio. Después de que Chris (Eddie Murphy), sin darse cuenta, haga un trato con una traviesa elfa llamada Pepper (Jillian Bell) para mejorar sus posibilidades de ganar, ella lanza un hechizo mágico donde los 12 días de Navidad cobran vida y causan estragos en toda la ciudad. A riesgo de arruinar las fiestas para su familia, Chris, su esposa Carol (Tracee Ellis Ross) y sus tres hijos deben correr contrarreloj para romper el hechizo de Pepper, luchar contra retorcidos personajes mágicos y salvar la Navidad para todos.

Ficha técnica

Video trailer de la película

Enlaces de descarga

Rip de Bluray

Descargar La Calle De La Navidad (2023) AMZN WEB-DL 1080p Latino




Aportes de DPeliculasHDmega la pass es:dpeliculashdmega.org Aportes de CinemaniaHD la pass es:cinemaniahdd.com Aportes recientes:cinemaniahdd.net
Guardado en : Comedia , Familia , Fantasía

Películas relacionadas

descargar La Calle De La Navidad (2023) AMZN WEB-DL 1080p Latino WEBDL 1080p gratis, La Calle De La Navidad (2023) AMZN WEB-DL 1080p Latino WEBDL mega 1 link, La Calle De La Navidad (2023) AMZN WEB-DL 1080p Latino WEBDL pelicula completa, descargar La Calle De La Navidad (2023) AMZN WEB-DL 1080p Latino WEBDL gratis en mega.

La Calle De La Navidad (2023) AMZN WEB-DL 1080p Latino pelicula full hd, La Calle De La Navidad (2023) AMZN WEB-DL 1080p Latino mega latino, La Calle De La Navidad (2023) AMZN WEB-DL 1080p Latino 4k latino, La Calle De La Navidad (2023) AMZN WEB-DL 1080p Latino pelicula completa, La Calle De La Navidad (2023) AMZN WEB-DL 1080p Latino descargar gratis, descargar La Calle De La Navidad (2023) AMZN WEB-DL 1080p Latino pelicula latino, La Calle De La Navidad (2023) AMZN WEB-DL 1080p Latino 1 link mega, La Calle De La Navidad (2023) AMZN WEB-DL 1080p Latino 1 link google drive, La Calle De La Navidad (2023) AMZN WEB-DL 1080p Latino hd 1080p latino.
Comentarios 0