×

¿Problemas para descargar con Mozilla, EDGE? Deshabilita la opción "Abrir vinculos en una pestaña nueva" tal como lo muestra ésta imagen.

La Caída (2022) AMZN WEB-DL 1080p Latino

38 vistas

Información de La Caída (2022) AMZN WEB-DL 1080p Latino

Datos de la película

  • Calidad: 1080p
  • Audio: Español Latino AC3 5.1
  • Subtitulos: Español Latino SRT - Ingles SRT
  • Resolución: 1920x800
  • Formato: MKV
  • Codec: H.264
  • Encoder: cinemaniahdd
  • Mediainfo: Clic para Mostrar Datos Ver
  • La Caída (2022) AMZN WEB-DL 1080p Latino [CNMNHDD].mkv
    Format                      : Matroska
    Format version              : Version 4
    File size                   : 6.18 GiB
    Duration                    : 1 h 34 min
    Overall bit rate            : 9 330 kb/s
    Movie name                  : La Caída (2022) [1080p] - CinemaniaHDD.Net
    Encoded date                : UTC 2022-11-11 00:48:32
    Writing application         : mkvmerge v56.1.0 ('My Friend') 64-bit
    Writing library             : libebml v1.4.2 + libmatroska v1.6.4

    Video
    ID                          : 1
    Format                      : AVC
    Format/Info                 : Advanced Video Codec
    Format profile              : High@L4
    Format settings             : CABAC / 4 Ref Frames
    Format settings, CABAC      : Yes
    Format settings, Reference  : 4 frames
    Codec ID                    : V_MPEG4/ISO/AVC
    Duration                    : 1 h 34 min
    Bit rate mode               : Constant
    Bit rate                    : 8 048 kb/s
    Nominal bit rate            : 10 000 kb/s
    Width                       : 1 920 pixels
    Height                      : 800 pixels
    Display aspect ratio        : 2.40:1
    Frame rate mode             : Constant
    Frame rate                  : 24.000 FPS
    Color space                 : YUV
    Chroma subsampling          : 4:2:0
    Bit depth                   : 8 bits
    Scan type                   : Progressive
    Bits/(Pixel*Frame)          : 0.218
    Stream size                 : 5.33 GiB (86%)
    Title                       : CinemaniaHDD
    Default                     : Yes
    Forced                      : No
    Color range                 : Limited
    Color primaries             : BT.709
    Transfer characteristics    : BT.709
    Matrix coefficients         : BT.709

    Audio #1
    ID                          : 2
    Format                      : AC-3
    Format/Info                 : Audio Coding 3
    Commercial name             : Dolby Digital
    Codec ID                    : A_AC3
    Duration                    : 1 h 34 min
    Bit rate mode               : Constant
    Bit rate                    : 640 kb/s
    Channel(s)                  : 6 channels
    Channel layout              : L R C LFE Ls Rs
    Sampling rate               : 48.0 kHz
    Frame rate                  : 31.250 FPS (1536 SPF)
    Compression mode            : Lossy
    Stream size                 : 434 MiB (7%)
    Title                       : Español latino [CinemaniaHDD]
    Language                    : Spanish
    Service kind                : Complete Main
    Default                     : Yes
    Forced                      : No

    Audio #2
    ID                          : 3
    Format                      : E-AC-3
    Format/Info                 : Enhanced AC-3
    Commercial name             : Dolby Digital Plus
    Codec ID                    : A_EAC3
    Duration                    : 1 h 34 min
    Bit rate mode               : Constant
    Bit rate                    : 640 kb/s
    Channel(s)                  : 6 channels
    Channel layout              : L R C LFE Ls Rs
    Sampling rate               : 48.0 kHz
    Frame rate                  : 31.250 FPS (1536 SPF)
    Compression mode            : Lossy
    Stream size                 : 434 MiB (7%)
    Title                       : Español latino / E-AC3 [CinemaniaHDD]
    Language                    : Spanish
    Service kind                : Complete Main
    Default                     : No
    Forced                      : No

    Text #1
    ID                          : 4
    Format                      : UTF-8
    Codec ID                    : S_TEXT/UTF8
    Codec ID/Info               : UTF-8 Plain Text
    Duration                    : 1 h 29 min
    Bit rate                    : 60 b/s
    Count of elements           : 1319
    Stream size                 : 39.6 KiB (0%)
    Title                       : Español latino [CinemaniaHDD]
    Language                    : Spanish
    Default                     : No
    Forced                      : No

    Text #2
    ID                          : 5
    Format                      : UTF-8
    Codec ID                    : S_TEXT/UTF8
    Codec ID/Info               : UTF-8 Plain Text
    Duration                    : 1 h 34 min
    Bit rate                    : 75 b/s
    Count of elements           : 1761
    Stream size                 : 52.4 KiB (0%)
    Title                       : Español latino (SDH) [CinemaniaHDD]
    Language                    : Spanish
    Default                     : No
    Forced                      : No

    Text #3
    ID                          : 6
    Format                      : UTF-8
    Codec ID                    : S_TEXT/UTF8
    Codec ID/Info               : UTF-8 Plain Text
    Duration                    : 1 h 32 min
    Bit rate                    : 44 b/s
    Count of elements           : 977
    Stream size                 : 30.5 KiB (0%)
    Title                       : Inglés [CinemaniaHDD]
    Language                    : English
    Default                     : No
    Forced                      : No

     

  • Peso: 6.18 GiB

Sinopsis

De la galardonada Lucía Puenzo, llega «Dive», protagonizada por Karla Souza en una espectacular actuación espectacular en esta historia sobre las complejidades de las relaciones en un contexto en el que ganar se define como el último sueño.

Ficha técnica

  • Titulo original: La Caída
  • Fecha de lanzamiento: 24-10-2022 (Mexico)
  • Director: Lucía Puenzo
  • Género: Drama

Video trailer de la película

Enlaces de descarga

Rip de Bluray

Descargar La Caída (2022) AMZN WEB-DL 1080p Latino




Aportes de DPeliculasHDmega la pass es:dpeliculashdmega.org Aportes de CinemaniaHD la pass es:cinemaniahdd.com
Guardado en : Drama

Películas relacionadas

descargar La Caída (2022) AMZN WEB-DL 1080p Latino 1080p 1080p gratis, La Caída (2022) AMZN WEB-DL 1080p Latino 1080p mega 1 link, La Caída (2022) AMZN WEB-DL 1080p Latino 1080p pelicula completa, descargar La Caída (2022) AMZN WEB-DL 1080p Latino 1080p gratis en mega.

La Caída (2022) AMZN WEB-DL 1080p Latino pelicula full hd, La Caída (2022) AMZN WEB-DL 1080p Latino mega latino, La Caída (2022) AMZN WEB-DL 1080p Latino 4k latino, La Caída (2022) AMZN WEB-DL 1080p Latino pelicula completa, La Caída (2022) AMZN WEB-DL 1080p Latino descargar gratis, descargar La Caída (2022) AMZN WEB-DL 1080p Latino pelicula latino, La Caída (2022) AMZN WEB-DL 1080p Latino 1 link mega, La Caída (2022) AMZN WEB-DL 1080p Latino 1 link google drive, La Caída (2022) AMZN WEB-DL 1080p Latino hd 1080p latino.
Comentarios 0