La brújula dorada (2007) 1080p Latino

671 vistas
1 estrella2 estrellas3 estrellas4 estrellas5 estrellas (6 votos, promedio: 3,67 de 5)
Cargando…

Información de La brújula dorada (2007) 1080p Latino

Datos de la película

  • Calidad: 1080p
  • Audio: Español Latino AC3 5.1 BLURAY - Ingles AC3 5.1 BLURAY
  • Subtitulos: Español Latino SRT - Ingles SRT
  • Resolución: 1916x800p
  • Formato: MKV
  • Codec: H.264
  • Encoder: CinefiloCool
  • Mediainfo: Clic para Mostrar Datos Ver
  • La Brujula Dorada (2007) 1080p Latino.mkv
    Format                      : Matroska
    Format version              : Version 4 / Version 2
    File size                   : 3.38 GiB
    Duration                    : 1 h 53 min
    Overall bit rate            : 4 268 kb/s
    Movie name                  :  CinemaniaHDD.Net
    Encoded date                : UTC 2018-10-15 00:43:07 / UTC 2018-10-14T21:56:40Z
    Writing application         : mkvmerge v25.0.0 ('Prog Noir') 64-bit
    Writing library             : libebml v1.3.6 + libmatroska v1.4.9 / Lavf57.7.2

    Video
    ID                          : 1
    Format                      : AVC
    Format/Info                 : Advanced Video Codec
    Format profile              : High@L4.1
    Format settings             : CABAC / 5 Ref Frames
    Format settings, CABAC      : Yes
    Format settings, RefFrames  : 5 frames
    Codec ID                    : V_MPEG4/ISO/AVC
    Duration                    : 1 h 53 min
    Bit rate                    : 3 287 kb/s
    Nominal bit rate            : 3 500 kb/s
    Width                       : 1 916 pixels
    Height                      : 800 pixels
    Display aspect ratio        : 2.40:1
    Frame rate mode             : Constant
    Frame rate                  : 23.976 (24000/1001) FPS
    Color space                 : YUV
    Chroma subsampling          : 4:2:0
    Bit depth                   : 8 bits
    Scan type                   : Progressive
    Bits/(Pixel*Frame)          : 0.089
    Stream size                 : 2.60 GiB (77%)
    Title                       : HD1080p [Bluray]
    Writing library             : x264 core 155 r2893 b00bcaf
    Encoding settings           : cabac=1 / ref=5 / deblock=1:0:0 / analyse=0x3:0x113 / me=hex / subme=8 / psy=1 / psy_rd=1.00:0.00 / mixed_ref=1 / me_range=16 / chroma_me=1 / trellis=2 / 8x8dct=1 / cqm=0 / deadzone=21,11 / fast_pskip=1 / chroma_qp_offset=-2 / threads=25 / lookahead_threads=4 / sliced_threads=0 / nr=0 / decimate=1 / interlaced=0 / bluray_compat=0 / constrained_intra=0 / bframes=3 / b_pyramid=2 / b_adapt=1 / b_bias=0 / direct=3 / weightb=1 / open_gop=0 / weightp=2 / keyint=240 / keyint_min=24 / scenecut=40 / intra_refresh=0 / rc_lookahead=50 / rc=abr / mbtree=1 / bitrate=3500 / ratetol=1.0 / qcomp=0.60 / qpmin=0 / qpmax=69 / qpstep=4 / vbv_maxrate=62500 / vbv_bufsize=78125 / nal_hrd=none / filler=0 / ip_ratio=1.40 / aq=1:1.00
    Default                     : Yes
    Forced                      : No
    Color range                 : Limited
    Color primaries             : BT.709
    Transfer characteristics    : BT.709
    Matrix coefficients         : BT.709
    Statistics Tags Issue       : mkvmerge v25.0.0 ('Prog Noir') 64-bit 2018-10-15 00:43:07 / mkvmerge v25.0.0 ('Prog Noir') 64-bit 2018-10-15 00:43:07 / UTC 2018-10-14T21:56:40Z
    FromStats_BitRate           : 3369494
    FromStats_Duration          : 01:53:17.708000000
    FromStats_FrameCount        : 162982
    FromStats_StreamSize        : 2863104647

    Audio #1
    ID                          : 2
    Format                      : AC-3
    Format/Info                 : Audio Coding 3
    Format settings, Endianness : Big
    Codec ID                    : A_AC3
    Duration                    : 1 h 53 min
    Bit rate mode               : Constant
    Bit rate                    : 448 kb/s
    Channel(s)                  : 6 channels
    Channel positions           : Front: L C R, Side: L R, LFE
    Sampling rate               : 48.0 kHz
    Frame rate                  : 31.250 FPS (1536 SPF)
    Bit depth                   : 16 bits
    Compression mode            : Lossy
    Delay relative to video     : -5 ms
    Stream size                 : 363 MiB (10%)
    Title                       : AC3_5.1_Bluray_Esp
    Language                    : Spanish
    Service kind                : Complete Main
    Default                     : Yes
    Forced                      : No
    Statistics Tags Issue       : mkvmerge v25.0.0 ('Prog Noir') 64-bit 2018-10-15 00:43:07 / mkvmerge v25.0.0 ('Prog Noir') 64-bit 2018-10-15 00:43:07 / UTC 2018-10-14T21:56:40Z
    FromStats_BitRate           : 448000
    FromStats_Duration          : 01:53:17.120000000
    FromStats_FrameCount        : 212410
    FromStats_StreamSize        : 380638720

    Audio #2
    ID                          : 3
    Format                      : AC-3
    Format/Info                 : Audio Coding 3
    Format settings, Endianness : Big
    Codec ID                    : A_AC3
    Duration                    : 1 h 53 min
    Bit rate mode               : Constant
    Bit rate                    : 448 kb/s
    Channel(s)                  : 6 channels
    Channel positions           : Front: L C R, Side: L R, LFE
    Sampling rate               : 48.0 kHz
    Frame rate                  : 31.250 FPS (1536 SPF)
    Bit depth                   : 16 bits
    Compression mode            : Lossy
    Stream size                 : 363 MiB (10%)
    Title                       : AC3_5.1_Bluray_Eng
    Language                    : English
    Service kind                : Complete Main
    Default                     : No
    Forced                      : No
    Statistics Tags Issue       : mkvmerge v25.0.0 ('Prog Noir') 64-bit 2018-10-15 00:43:07 / mkvmerge v25.0.0 ('Prog Noir') 64-bit 2018-10-15 00:43:07 / UTC 2018-10-14T21:56:40Z
    FromStats_BitRate           : 448000
    FromStats_Duration          : 01:53:17.824000000
    FromStats_FrameCount        : 212432
    FromStats_StreamSize        : 380678144

    Text #1
    ID                          : 4
    Format                      : UTF-8
    Codec ID                    : S_TEXT/UTF8
    Codec ID/Info               : UTF-8 Plain Text
    Title                       : Sub_Esp
    Language                    : Spanish
    Default                     : No
    Forced                      : No
    Statistics Tags Issue       : mkvmerge v25.0.0 ('Prog Noir') 64-bit 2018-10-15 00:43:07 / mkvmerge v25.0.0 ('Prog Noir') 64-bit 2018-10-15 00:43:07 / UTC 2018-10-14T21:56:40Z
    FromStats_BitRate           : 52
    FromStats_Duration          : 01:42:01.334000000
    FromStats_FrameCount        : 1081
    FromStats_StreamSize        : 40266

    Text #2
    ID                          : 5
    Format                      : UTF-8
    Codec ID                    : S_TEXT/UTF8
    Codec ID/Info               : UTF-8 Plain Text
    Title                       : Sub_Eng
    Language                    : English
    Default                     : No
    Forced                      : No
    Statistics Tags Issue       : mkvmerge v25.0.0 ('Prog Noir') 64-bit 2018-10-15 00:43:07 / mkvmerge v25.0.0 ('Prog Noir') 64-bit 2018-10-15 00:43:07 / UTC 2018-10-14T21:56:40Z
    FromStats_BitRate           : 51
    FromStats_Duration          : 01:41:52.095000000
    FromStats_FrameCount        : 1307
    FromStats_StreamSize        : 39275

    Menu
    00:00:00.000                : :Prologue: Many Worlds
    00:04:40.822                : :The Decanter of Tokay
    00:08:52.532                : :The Idea of North
    00:13:05.702                : :Lyra's Jordan
    00:18:58.596                : :The Alethiometer
    00:21:58.943                : :Mrs. Coulter
    00:29:15.587                : :The Throwing Nets
    00:33:41.269                : :John Faa
    00:39:41.170                : :The Spies
    00:45:29.644                : :Serafina Pekkala
    00:48:13.641                : :The Aeronaut and the Bear
    00:54:01.822                : :Armour
    00:59:55.550                : :The Lost Boy
    01:08:10.044                : :Captivity
    01:14:12.114                : :Mortal Combat
    01:21:31.678                : :Bolvanger Lights
    01:24:43.829                : :The Silver Giullotine
    01:33:26.059                : :The Witches
    01:39:27.211                : :A Prophesy
    01:43:08.974                : :End Credits

  • Peso: 3.38 GiB

Sinopsis

Descargar La brújula dorada (2007) 1080p Latino; Mega, Google Drive. Historia de una niña de 12 años que hará un largo viaje para intentar salvar a un amigo. En el camino se encontrará con todo tipo de extrañas criaturas, brujas y otros personajes de un universo paralelo… En este singular mundo, donde las almas humanas toman la forma de compañeros del género animal, esta niña se coloca entre el fin de la libre voluntad y el inicio de una nueva era. Lyra Belacqua sólo tiene 12 años, pero incluso ella sabe que hacer lo que te dicen en lugar de hacer lo sientes está bien puede tener resultados muy diferentes. Una huérfana rebelde que vive como una reclusa en Jordan College en la ciudad de Oxford, Lyra pertenece a un mundo que es uno de muchos mundos paralelos: mundos no vistos, dimensiones intangibles donde la humanidad se desarrolla con sutiles diferencias.

Ficha técnica

Video trailer de la película

Enlaces de descarga

Rip de Bluray

Descargar La brújula dorada (2007) 1080p Latino




Aportes de DPeliculasHDmega la pass es:dpeliculashdmega.org Aportes de CinemaniaHD la pass es:cinemaniahdd.com
Guardado en : Aventura , Fantasía , HD 1080p

Películas relacionadas

  • Titanes (2018) Temporada 01 Web-DL 1080p Subtitulado

    2018
    Titanes (2018) Temporada 01 Web-DL 1080p Subtitulado

    3.3 0h 43m 2018

    Descargar Titanes (2018) Temporada 01 Web-DL 1080p Subtitulado; Mega, Google Drive. Un equipo de jóvenes...

    Director: Greg Berlanti

    Género: Action & Adventure

    Actores: Teagan Croft

  • El Justiciero 2 (2018) 1080p Latino

    2018
    El Justiciero 2 (2018) 1080p Latino

    2.5 2h 0m 2018

    Descargar El Justiciero 2 (2018) 1080p Latino, Mega, Google Drive. Robert McCall (Denzel Washington)...

    Director: Donald Sparks

    Género: Acción

    Actores: Wesley Pereira

  • Los increíbles 2 (2018) Full 1080p Latino

    2018
    Los increíbles 2 (2018) Full 1080p Latino

    5.0 1h 58m 2018

    Helen tiene que liderar una campaña para que los superhéroes regresen, mientras Bob vive su vida "normal"...

    Director: Seong-Young Kim

    Género: Acción

    Actores: Usher

Comentarios 0