×

¿Problemas para descargar con Mozilla, EDGE? Deshabilita la opción "Abrir vinculos en una pestaña nueva" tal como lo muestra ésta imagen.

La Brea (2022) Temporada 2 NBC WEB-DL 1080p Castellano

40 vistas

Información de La Brea (2022) Temporada 2 NBC WEB-DL 1080p Castellano

Datos de la película

  • Calidad: 1080p
  • Audio: Español España AC3 5.1 - Ingles AC3 5.1
  • Subtitulos: Español España SRT - Ingles SRT
  • Resolución: 1920x1080
  • Formato: MKV
  • Codec: H.264
  • Encoder: cinemaniahdd
  • Mediainfo: Clic para Mostrar Datos Ver
  • La Brea T02E01 NBC WEB-DL 1080p Castellano [CNMNHDD].mkv
    Format                      : Matroska
    Format version              : Version 4
    File size                   : 2.61 GiB
    Duration                    : 41 min 33 s
    Overall bit rate mode       : Variable
    Overall bit rate            : 7 995 kb/s
    Movie name                  : La Brea S02E01 - El dia siguiente [1080p] - CinemaniaHDD.Net
    Encoded date                : UTC 2022-11-11 00:31:47
    Writing application         : mkvmerge v58.0.0 ('Supper's Ready') 32-bit
    Writing library             : libebml v1.4.2 + libmatroska v1.6.4

    Video
    ID                          : 1
    Format                      : AVC
    Format/Info                 : Advanced Video Codec
    Format profile              : High@L4
    Format settings             : CABAC / 4 Ref Frames
    Format settings, CABAC      : Yes
    Format settings, Reference  : 4 frames
    Codec ID                    : V_MPEG4/ISO/AVC
    Duration                    : 41 min 33 s
    Bit rate mode               : Variable
    Bit rate                    : 7 002 kb/s
    Maximum bit rate            : 20.0 Mb/s
    Width                       : 1 920 pixels
    Height                      : 1 080 pixels
    Display aspect ratio        : 16:9
    Frame rate mode             : Constant
    Frame rate                  : 25.000 FPS
    Color space                 : YUV
    Chroma subsampling          : 4:2:0
    Bit depth                   : 8 bits
    Scan type                   : Progressive
    Bits/(Pixel*Frame)          : 0.159
    Stream size                 : 2.39 GiB (91%)
    Title                       : CinemaniaHDD
    Writing library             : x264 core 157 r2965 861cec4
    Default                     : Yes
    Forced                      : No
    Color range                 : Limited
    Color primaries             : BT.709
    Transfer characteristics    : BT.709
    Matrix coefficients         : BT.709

    Audio #1
    ID                          : 2
    Format                      : AC-3
    Format/Info                 : Audio Coding 3
    Commercial name             : Dolby Digital
    Codec ID                    : A_AC3
    Duration                    : 41 min 32 s
    Bit rate mode               : Constant
    Bit rate                    : 256 kb/s
    Channel(s)                  : 6 channels
    Channel layout              : L R C LFE Ls Rs
    Sampling rate               : 48.0 kHz
    Frame rate                  : 31.250 FPS (1536 SPF)
    Compression mode            : Lossy
    Stream size                 : 114 MiB (4%)
    Title                       : Español Castellano [CinemaniaHDD]
    Language                    : Spanish
    Service kind                : Complete Main
    Default                     : No
    Forced                      : No

    Audio #2
    ID                          : 3
    Format                      : AC-3
    Format/Info                 : Audio Coding 3
    Commercial name             : Dolby Digital
    Codec ID                    : A_AC3
    Duration                    : 41 min 32 s
    Bit rate mode               : Constant
    Bit rate                    : 256 kb/s
    Channel(s)                  : 6 channels
    Channel layout              : L R C LFE Ls Rs
    Sampling rate               : 48.0 kHz
    Frame rate                  : 31.250 FPS (1536 SPF)
    Compression mode            : Lossy
    Stream size                 : 114 MiB (4%)
    Title                       : Inglés [CinemaniaHDD]
    Language                    : English
    Service kind                : Complete Main
    Default                     : No
    Forced                      : No

    Text #1
    ID                          : 4
    Format                      : UTF-8
    Codec ID                    : S_TEXT/UTF8
    Codec ID/Info               : UTF-8 Plain Text
    Duration                    : 40 min 53 s
    Bit rate                    : 53 b/s
    Count of elements           : 483
    Stream size                 : 16.0 KiB (0%)
    Title                       : Español Castellano [CinemaniaHDD]
    Language                    : Spanish
    Default                     : No
    Forced                      : No

    Text #2
    ID                          : 5
    Format                      : UTF-8
    Codec ID                    : S_TEXT/UTF8
    Codec ID/Info               : UTF-8 Plain Text
    Duration                    : 40 min 13 s
    Bit rate                    : 64 b/s
    Count of elements           : 568
    Stream size                 : 18.9 KiB (0%)
    Title                       : Inglés  [CinemaniaHDD]
    Language                    : English
    Default                     : No
    Forced                      : No

     

  • Peso: 2.61 GiB C/U --- 4 CAPITULOS AGREGADOS

Sinopsis

Un agujero gigantesco, de origen inexplicable, destruye Los Ángeles y separa a una familia en dos mundos distintos: la madre y el hijo quedan atrapados en una tierra salvaje, mientras que, en la superficie, el padre y la hija intentan rescatarlos.

4 CAPITULOS AGREGADOS

Ficha técnica

Video trailer de la película

Enlaces de descarga

Rip de Bluray

Descargar La Brea (2022) Temporada 2 NBC WEB-DL 1080p Castellano




Aportes de DPeliculasHDmega la pass es:dpeliculashdmega.org Aportes de CinemaniaHD la pass es:cinemaniahdd.com

Películas relacionadas

descargar La Brea (2022) Temporada 2 NBC WEB-DL 1080p Castellano 1080p 1080p gratis, La Brea (2022) Temporada 2 NBC WEB-DL 1080p Castellano 1080p mega 1 link, La Brea (2022) Temporada 2 NBC WEB-DL 1080p Castellano 1080p serie completa, descargar La Brea (2022) Temporada 2 NBC WEB-DL 1080p Castellano 1080p gratis en mega.

La Brea (2022) Temporada 2 NBC WEB-DL 1080p Castellano pelicula full hd, La Brea (2022) Temporada 2 NBC WEB-DL 1080p Castellano mega latino, La Brea (2022) Temporada 2 NBC WEB-DL 1080p Castellano 4k latino, La Brea (2022) Temporada 2 NBC WEB-DL 1080p Castellano pelicula completa, La Brea (2022) Temporada 2 NBC WEB-DL 1080p Castellano descargar gratis, descargar La Brea (2022) Temporada 2 NBC WEB-DL 1080p Castellano pelicula latino, La Brea (2022) Temporada 2 NBC WEB-DL 1080p Castellano 1 link mega, La Brea (2022) Temporada 2 NBC WEB-DL 1080p Castellano 1 link google drive, La Brea (2022) Temporada 2 NBC WEB-DL 1080p Castellano hd 1080p latino.
Comentarios 0