×

¿Problemas para descargar con Mozilla, EDGE? Deshabilita la opción "Abrir vinculos en una pestaña nueva" tal como lo muestra ésta imagen.

La Brea (2021) Primera Temporada AMZN WEB-DL 1080p Latino

3.453 vistas

Información de La Brea (2021) Primera Temporada AMZN WEB-DL 1080p Latino

Datos de la película

  • Calidad: 1080p
  • Audio: Español Latino AC3 2.0 WEB-DL - Ingles AC3 5.1 WEB-DL
  • Subtitulos: Español Latino SRT- FORZADOS SRT
  • Resolución: 1920x1080
  • Formato: MKV
  • Codec: H.264
  • Encoder: cinemaniahdd
  • Mediainfo: Clic para Mostrar Datos Ver
  • La Brea T01E01 AMZN WEB-DL 1080p Latino [CNMNHDD].mkv
    Format                      : Matroska
    Format version              : Version 4
    File size                   : 2.94 GiB
    Duration                    : 42 min 49 s
    Overall bit rate            : 9 829 kb/s
    Movie name                  : La Brea T01E01 - CinemaniaHDD.Net
    Encoded date                : UTC 2022-02-23 01:17:06
    Writing application         : mkvmerge v56.1.0 ('My Friend') 64-bit
    Writing library             : libebml v1.4.2 + libmatroska v1.6.4

    Video
    ID                          : 1
    Format                      : AVC
    Format/Info                 : Advanced Video Codec
    Format profile              : High@L4
    Format settings             : CABAC / 4 Ref Frames
    Format settings, CABAC      : Yes
    Format settings, Reference  : 4 frames
    Codec ID                    : V_MPEG4/ISO/AVC
    Duration                    : 42 min 49 s
    Bit rate mode               : Constant
    Bit rate                    : 8 803 kb/s
    Nominal bit rate            : 10 000 kb/s
    Width                       : 1 920 pixels
    Height                      : 1 080 pixels
    Display aspect ratio        : 16:9
    Frame rate mode             : Constant
    Frame rate                  : 23.976 (24000/1001) FPS
    Color space                 : YUV
    Chroma subsampling          : 4:2:0
    Bit depth                   : 8 bits
    Scan type                   : Progressive
    Bits/(Pixel*Frame)          : 0.177
    Stream size                 : 2.63 GiB (90%)
    Title                       : CinemaniaHDD
    Default                     : Yes
    Forced                      : No
    Color range                 : Limited
    Color primaries             : BT.709
    Transfer characteristics    : BT.709
    Matrix coefficients         : BT.709

    Audio #1
    ID                          : 2
    Format                      : AC-3
    Format/Info                 : Audio Coding 3
    Commercial name             : Dolby Digital
    Codec ID                    : A_AC3
    Duration                    : 42 min 49 s
    Bit rate mode               : Constant
    Bit rate                    : 384 kb/s
    Channel(s)                  : 2 channels
    Channel layout              : L R
    Sampling rate               : 48.0 kHz
    Frame rate                  : 31.250 FPS (1536 SPF)
    Compression mode            : Lossy
    Stream size                 : 118 MiB (4%)
    Title                       : Español latino [CinemaniaHDD]
    Language                    : Spanish
    Service kind                : Complete Main
    Default                     : Yes
    Forced                      : No

    Audio #2
    ID                          : 3
    Format                      : E-AC-3
    Format/Info                 : Enhanced AC-3
    Commercial name             : Dolby Digital Plus
    Codec ID                    : A_EAC3
    Duration                    : 42 min 49 s
    Bit rate mode               : Constant
    Bit rate                    : 640 kb/s
    Channel(s)                  : 6 channels
    Channel layout              : L R C LFE Ls Rs
    Sampling rate               : 48.0 kHz
    Frame rate                  : 31.250 FPS (1536 SPF)
    Compression mode            : Lossy
    Stream size                 : 196 MiB (7%)
    Title                       : Inglés [CinemaniaHDD]
    Language                    : English
    Service kind                : Complete Main
    Default                     : No
    Forced                      : No

    Text #1
    ID                          : 4
    Format                      : UTF-8
    Codec ID                    : S_TEXT/UTF8
    Codec ID/Info               : UTF-8 Plain Text
    Duration                    : 34 min 45 s
    Bit rate                    : 0 b/s
    Count of elements           : 5
    Stream size                 : 119 Bytes (0%)
    Title                       : Forzados [CinemaniaHDD]
    Language                    : Spanish
    Default                     : Yes
    Forced                      : Yes

    Text #2
    ID                          : 5
    Format                      : UTF-8
    Codec ID                    : S_TEXT/UTF8
    Codec ID/Info               : UTF-8 Plain Text
    Duration                    : 41 min 36 s
    Bit rate                    : 60 b/s
    Count of elements           : 666
    Stream size                 : 18.5 KiB (0%)
    Title                       : Español latino [CinemaniaHDD]
    Language                    : Spanish
    Default                     : No
    Forced                      : No

    Text #3
    ID                          : 6
    Format                      : UTF-8
    Codec ID                    : S_TEXT/UTF8
    Codec ID/Info               : UTF-8 Plain Text
    Duration                    : 41 min 36 s
    Bit rate                    : 66 b/s
    Count of elements           : 746
    Stream size                 : 20.3 KiB (0%)
    Title                       : Inglés [CinemaniaHDD]
    Language                    : English
    Default                     : No
    Forced                      : No

    Menu
    00:42:12.000                : Credits

     

     

  • Peso: 2.94 GiB Aprox ---- 28 GiB in 8 Chapters.

Sinopsis

Comienza una épica aventura cuando se abre un gigantesco hoyo en el medio de Los Ángeles, tragándose a cientos de personas y edificios. Los que cayeron, se encuentran en una tierra primitiva llena de peligros y misterio, en donde no tienen otra alternativa que unirse para sobrevivir. Entretanto, el resto del mundo busca desesperadamente entender qué fue lo que pasó. En busca de respuestas, una familia destrozada por el desastre tendrá que descubrir los secretos de este acontecimiento inexplicable y hallar la manera de volver a encontrarse.

Ficha técnica

Video trailer de la película

Enlaces de descarga

Rip de Bluray

Descargar La Brea (2021) Primera Temporada AMZN WEB-DL 1080p Latino




Aportes de DPeliculasHDmega la pass es:dpeliculashdmega.org Aportes de CinemaniaHD la pass es:cinemaniahdd.com

Películas relacionadas

descargar La Brea (2021) Primera Temporada AMZN WEB-DL 1080p Latino 1080p 1080p gratis, La Brea (2021) Primera Temporada AMZN WEB-DL 1080p Latino 1080p mega 1 link, La Brea (2021) Primera Temporada AMZN WEB-DL 1080p Latino 1080p serie completa, descargar La Brea (2021) Primera Temporada AMZN WEB-DL 1080p Latino 1080p gratis en mega.

La Brea (2021) Primera Temporada AMZN WEB-DL 1080p Latino pelicula full hd, La Brea (2021) Primera Temporada AMZN WEB-DL 1080p Latino mega latino, La Brea (2021) Primera Temporada AMZN WEB-DL 1080p Latino 4k latino, La Brea (2021) Primera Temporada AMZN WEB-DL 1080p Latino pelicula completa, La Brea (2021) Primera Temporada AMZN WEB-DL 1080p Latino descargar gratis, descargar La Brea (2021) Primera Temporada AMZN WEB-DL 1080p Latino pelicula latino, La Brea (2021) Primera Temporada AMZN WEB-DL 1080p Latino 1 link mega, La Brea (2021) Primera Temporada AMZN WEB-DL 1080p Latino 1 link google drive, La Brea (2021) Primera Temporada AMZN WEB-DL 1080p Latino hd 1080p latino.
Comentarios 1
  • RICHARD - 07 febrero, 2022

    GRACIAS