×

¿Problemas para descargar con Mozilla, EDGE? Deshabilita la opción "Abrir vinculos en una pestaña nueva" tal como lo muestra ésta imagen.

La Boda de la Abuela (2019) AMZN WEB-DL 1080p Latino

1.296 vistas

Información de La Boda de la Abuela (2019) AMZN WEB-DL 1080p Latino

Datos de la película

  • Calidad: WEBDL
  • Audio: Español Latino AC3 5.1
  • Subtitulos: Español Latino SRT
  • Resolución: 1920x800
  • Formato: MKV
  • Codec: H.264
  • Encoder: cinemaniahdd
  • Mediainfo: Clic para Mostrar Datos Ver
  • La Boda de la Abuela (2019) AMZN WEB-DL 1080p Latino.mkv
    Format                      : Matroska
    Format version              : Version 4
    File size                   : 5.61 GiB
    Duration                    : 1 h 37 min
    Overall bit rate            : 8 270 kb/s
    Movie name                  : La Boda de la Abuela (2019) - CinemaniaHDD.Net
    Encoded date                : UTC 2020-01-18 06:01:39
    Writing application         : mkvmerge v38.0.0 ('The Silent Type') 64-bit
    Writing library             : libebml v1.3.9 + libmatroska v1.5.2

    Video
    ID                          : 1
    Format                      : AVC
    Format/Info                 : Advanced Video Codec
    Format profile              : High@L4
    Format settings             : CABAC / 4 Ref Frames
    Format settings, CABAC      : Yes
    Format settings, ReFrames   : 4 frames
    Codec ID                    : V_MPEG4/ISO/AVC
    Duration                    : 1 h 37 min
    Bit rate mode               : Constant
    Bit rate                    : 7 628 kb/s
    Nominal bit rate            : 10 000 kb/s
    Width                       : 1 920 pixels
    Height                      : 800 pixels
    Display aspect ratio        : 2.40:1
    Frame rate mode             : Constant
    Frame rate                  : 23.976 (24000/1001) FPS
    Color space                 : YUV
    Chroma subsampling          : 4:2:0
    Bit depth                   : 8 bits
    Scan type                   : Progressive
    Bits/(Pixel*Frame)          : 0.207
    Stream size                 : 5.18 GiB (92%)
    Title                       : CinemaniaHDD
    Default                     : Yes
    Forced                      : No
    Color range                 : Limited
    Color primaries             : BT.709
    Transfer characteristics    : BT.709
    Matrix coefficients         : BT.709

    Audio
    ID                          : 2
    Format                      : AC-3
    Format/Info                 : Audio Coding 3
    Commercial name             : Dolby Digital
    Codec ID                    : A_AC3
    Duration                    : 1 h 37 min
    Bit rate mode               : Constant
    Bit rate                    : 640 kb/s
    Channel(s)                  : 6 channels
    Channel layout              : L R C LFE Ls Rs
    Sampling rate               : 48.0 kHz
    Frame rate                  : 31.250 FPS (1536 SPF)
    Bit depth                   : 16 bits
    Compression mode            : Lossy
    Stream size                 : 445 MiB (8%)
    Title                       : Español latino [CinemaniaHDD]
    Language                    : Spanish
    Service kind                : Complete Main
    Default                     : Yes
    Forced                      : No

    Text
    ID                          : 3
    Format                      : UTF-8
    Codec ID                    : S_TEXT/UTF8
    Codec ID/Info               : UTF-8 Plain Text
    Duration                    : 1 h 36 min
    Bit rate                    : 79 b/s
    Count of elements           : 1842
    Stream size                 : 56.5 KiB (0%)
    Title                       : Español latino [CinemaniaHDD]
    Language                    : Spanish
    Default                     : No
    Forced                      : No

     

  • Peso: 5.61 GiB

Sinopsis

La Abuela ha decidido casarse con Julio, el que por años ha sido el cuidador de su casa en Cuernavaca. Aunque no están muy de acuerdo con la situación, las familias de ambos se reúnen durante un fin de semana para celebrar el matrimonio. A pesar de sus múltiples diferencias, todos tratan de llevar la fiesta en paz, pero esto resulta mucho más complicado de lo que parece. La boda de la Abuela peligra por culpa de sus nietos y solo ellos pueden hacer que tenga un final feliz. Secuela de la película de 2015 ‘El cumple de la abuela’.

Ficha técnica

  • Titulo original: La boda de la abuela
  • Fecha de lanzamiento: 11-10-2019 (Mexico)
  • Director: Javier Colinas
  • Género: Comedia

Video trailer de la película

Enlaces de descarga

Rip de Bluray

Descargar La Boda de la Abuela (2019) AMZN WEB-DL 1080p Latino




Aportes de DPeliculasHDmega la pass es:dpeliculashdmega.org Aportes de CinemaniaHD la pass es:cinemaniahdd.com
Guardado en : Comedia

Películas relacionadas

  • Hombre de familia (2000) REMUX 1080p Latino

    Hombre de familia (2000) REMUX 1080p Latino

    2000
    Hombre de familia (2000) REMUX 1080p Latino

    2h 1m 2000

    Descargar Hombre de familia (2000) REMUX 1080p Latino. Jack Campbell es un egocéntrico broker de Wall...

    Director: Robert Schroer

    Género: Comedia

    Actores: Wass Stevens

  • Te Amo Brother (2009) REMUX 1080p Latino

    Te Amo Brother (2009) REMUX 1080p Latino

    2009
    Te Amo Brother (2009) REMUX 1080p Latino

    1h 45m 2009

    Descargar Te Amo Brother (2009) REMUX 1080p Latino. Peter Klaven (Paul Rudd) es un joven que vive muy...

    Director: Scott Robertson

    Género: Comedia

    Actores: Vicki Davis

  • Asústame (2020) HD 1080p Latino

    Asústame (2020) HD 1080p Latino

    2020
    Asústame (2020) HD 1080p Latino

    1h 44m 2020

    Descargar Asústame (2020) HD 1080p Latino. Durante un corte de energía, dos extraños cuentan historias...

    Director: Josh Ruben

    Género: Comedia

    Actores: Rebecca Drysdale

  • Asústame (2020) PLACEBO Full HD 1080p Latino

    Asústame (2020) PLACEBO Full HD 1080p Latino

    2020
    Asústame (2020) PLACEBO Full HD 1080p Latino

    1h 44m 2020

    Descargar Asústame (2020) PLACEBO Full HD 1080p Latino. Durante un corte de energía, dos extraños...

    Director: Josh Ruben

    Género: Comedia

    Actores: Rebecca Drysdale

descargar La Boda de la Abuela (2019) AMZN WEB-DL 1080p Latino WEBDL 1080p gratis, La Boda de la Abuela (2019) AMZN WEB-DL 1080p Latino WEBDL mega 1 link, La Boda de la Abuela (2019) AMZN WEB-DL 1080p Latino WEBDL pelicula completa, descargar La Boda de la Abuela (2019) AMZN WEB-DL 1080p Latino WEBDL gratis en mega.

La Boda de la Abuela (2019) AMZN WEB-DL 1080p Latino pelicula full hd, La Boda de la Abuela (2019) AMZN WEB-DL 1080p Latino mega latino, La Boda de la Abuela (2019) AMZN WEB-DL 1080p Latino 4k latino, La Boda de la Abuela (2019) AMZN WEB-DL 1080p Latino pelicula completa, La Boda de la Abuela (2019) AMZN WEB-DL 1080p Latino descargar gratis, descargar La Boda de la Abuela (2019) AMZN WEB-DL 1080p Latino pelicula latino, La Boda de la Abuela (2019) AMZN WEB-DL 1080p Latino 1 link mega, La Boda de la Abuela (2019) AMZN WEB-DL 1080p Latino 1 link google drive, La Boda de la Abuela (2019) AMZN WEB-DL 1080p Latino hd 1080p latino.
Comentarios 0