La bella y la bestia (1991) EXTENDED Full 1080p Latino

2.417 vistas
1 estrella2 estrellas3 estrellas4 estrellas5 estrellas (1 votos, promedio: 5,00 de 5)
Cargando…

Información de La bella y la bestia (1991) EXTENDED Full 1080p Latino

Datos de la película

  • Calidad: Full 1080p
  • Audio: Español Latino AC3 5.1 BLURAY - Ingles DTS 5.1 BLURAY
  • Subtitulos: Español Latino SRT - Ingles SRT
  • Resolución: 1920X1080
  • Formato: MKV
  • Codec: H.264
  • Encoder: Dpelis
  • Mediainfo: Clic para Mostrar Datos Ver
  • Format                                   : Matroska
    Format version                           : Version 4 / Version 2
    File size                                : 4.37 GiB
    Duration                                 : 1 h 31 min
    Overall bit rate                         : 6 817 kb/s
    Movie name                               : dpeliculashdmega.org
    Encoded date                             : UTC 2017-11-20 23:42:15 / UTC 2017-11-18T19:18:16Z
    Writing application                      : mkvmerge v15.0.0 ('Duel with the Devil') 64-bit
    Writing library                          : libebml v1.3.5 + libmatroska v1.4.5 / Lavf57.7.2

    Video
    ID                                       : 1
    Format                                   : AVC
    Format/Info                              : Advanced Video Codec
    Format profile                           : High@L4.1
    Format settings                          : CABAC / 4 Ref Frames
    Format settings, CABAC                   : Yes
    Format settings, RefFrames               : 4 frames
    Codec ID                                 : V_MPEG4/ISO/AVC
    Duration                                 : 1 h 31 min
    Bit rate                                 : 4 532 kb/s
    Width                                    : 1 920 pixels
    Height                                   : 1 080 pixels
    Display aspect ratio                     : 16:9
    Frame rate mode                          : Constant
    Frame rate                               : 23.976 (24000/1001) FPS
    Color space                              : YUV
    Chroma subsampling                       : 4:2:0
    Bit depth                                : 8 bits
    Scan type                                : Progressive
    Bits/(Pixel*Frame)                       : 0.091
    Stream size                              : 2.90 GiB (66%)
    Title                                    : La bella y la bestia (1991) EXTENDED Full 1080p Latino
    Writing library                          : x264 core 148 r2708 86b7198
    Encoding settings                        : cabac=1 / ref=4 / deblock=1:0:0 / analyse=0x3:0x133 / me=esa / subme=10 / psy=1 / psy_rd=1.00:0.00 / mixed_ref=1 / me_range=24 / chroma_me=1 / trellis=2 / 8x8dct=1 / cqm=0 / deadzone=21,11 / fast_pskip=1 / chroma_qp_offset=-2 / threads=34 / lookahead_threads=5 / sliced_threads=0 / nr=0 / decimate=1 / interlaced=0 / bluray_compat=0 / constrained_intra=0 / bframes=8 / b_pyramid=2 / b_adapt=2 / b_bias=0 / direct=3 / weightb=1 / open_gop=0 / weightp=2 / keyint=240 / keyint_min=24 / scenecut=40 / intra_refresh=0 / rc_lookahead=60 / rc=crf / mbtree=1 / crf=20.0 / qcomp=0.60 / qpmin=0 / qpmax=69 / qpstep=4 / vbv_maxrate=62500 / vbv_bufsize=78125 / crf_max=0.0 / nal_hrd=none / filler=0 / ip_ratio=1.40 / aq=1:1.00
    Language                                 : English
    Default                                  : Yes
    Forced                                   : No
    Color range                              : Limited
    Color primaries                          : BT.709
    Transfer characteristics                 : BT.709
    Matrix coefficients                      : BT.709
    Statistics Tags Issue                    : mkvmerge v15.0.0 ('Duel with the Devil') 64-bit 2017-11-20 23:42:15 / mkvmerge v15.0.0 ('Duel with the Devil') 64-bit 2017-11-20 23:42:15 / UTC 2017-11-18T19:18:16Z
    FromStats_BitRate                        : 4665331
    FromStats_Duration                       : 01:31:44.041000000
    FromStats_FrameCount                     : 131965
    FromStats_StreamSize                     : 3209771743

    Audio #1
    ID                                       : 2
    Format                                   : AC-3
    Format/Info                              : Audio Coding 3
    Format settings, Endianness              : Big
    Codec ID                                 : A_AC3
    Duration                                 : 1 h 31 min
    Bit rate mode                            : Constant
    Bit rate                                 : 640 kb/s
    Channel(s)                               : 6 channels
    Channel positions                        : Front: L C R, Side: L R, LFE
    Sampling rate                            : 48.0 kHz
    Frame rate                               : 31.250 FPS (1536 SPF)
    Bit depth                                : 16 bits
    Compression mode                         : Lossy
    Stream size                              : 420 MiB (9%)
    Title                                    : Latino-AC3
    Language                                 : Spanish
    Service kind                             : Complete Main
    Default                                  : Yes
    Forced                                   : No
    Statistics Tags Issue                    : mkvmerge v15.0.0 ('Duel with the Devil') 64-bit 2017-11-20 23:42:15 / mkvmerge v15.0.0 ('Duel with the Devil') 64-bit 2017-11-20 23:42:15 / UTC 2017-11-18T19:18:16Z
    FromStats_BitRate                        : 640000
    FromStats_Duration                       : 01:31:44.288000000
    FromStats_FrameCount                     : 172009
    FromStats_StreamSize                     : 440343040

    Audio #2
    ID                                       : 3
    Format                                   : DTS
    Format/Info                              : Digital Theater Systems
    Mode                                     : 16
    Format settings, Endianness              : Big
    Codec ID                                 : A_DTS
    Duration                                 : 1 h 31 min
    Bit rate mode                            : Constant
    Bit rate                                 : 1 509 kb/s
    Channel(s)                               : 6 channels
    Channel positions                        : Front: L C R, Side: L R, LFE
    Sampling rate                            : 48.0 kHz
    Frame rate                               : 93.750 FPS (512 SPF)
    Bit depth                                : 24 bits
    Compression mode                         : Lossy
    Stream size                              : 990 MiB (22%)
    Title                                    : Ingles-AC3
    Language                                 : English
    Default                                  : No
    Forced                                   : No
    Statistics Tags Issue                    : mkvmerge v15.0.0 ('Duel with the Devil') 64-bit 2017-11-20 23:42:15 / mkvmerge v15.0.0 ('Duel with the Devil') 64-bit 2017-11-20 23:42:15 / UTC 2017-11-18T19:18:16Z
    FromStats_BitRate                        : 1509000
    FromStats_Duration                       : 01:31:44.288000000
    FromStats_FrameCount                     : 516027
    FromStats_StreamSize                     : 1038246324

    Text #1
    ID                                       : 4
    Format                                   : UTF-8
    Codec ID                                 : S_TEXT/UTF8
    Codec ID/Info                            : UTF-8 Plain Text
    Title                                    : Forzados
    Language                                 : Spanish
    Default                                  : Yes
    Forced                                   : No
    Statistics Tags Issue                    : mkvmerge v15.0.0 ('Duel with the Devil') 64-bit 2017-11-20 23:42:15 / mkvmerge v15.0.0 ('Duel with the Devil') 64-bit 2017-11-20 23:42:15 / UTC 2017-11-18T19:18:16Z
    FromStats_BitRate                        : 0
    FromStats_Duration                       : 01:28:04.893000000
    FromStats_FrameCount                     : 5
    FromStats_StreamSize                     : 200

    Text #2
    ID                                       : 5
    Format                                   : UTF-8
    Codec ID                                 : S_TEXT/UTF8
    Codec ID/Info                            : UTF-8 Plain Text
    Language                                 : Spanish
    Default                                  : No
    Forced                                   : No
    Statistics Tags Issue                    : mkvmerge v15.0.0 ('Duel with the Devil') 64-bit 2017-11-20 23:42:15 / mkvmerge v15.0.0 ('Duel with the Devil') 64-bit 2017-11-20 23:42:15 / UTC 2017-11-18T19:18:16Z
    FromStats_BitRate                        : 55
    FromStats_Duration                       : 01:30:03.272000000
    FromStats_FrameCount                     : 1196
    FromStats_StreamSize                     : 37706

    Text #3
    ID                                       : 6
    Format                                   : UTF-8
    Codec ID                                 : S_TEXT/UTF8
    Codec ID/Info                            : UTF-8 Plain Text
    Language                                 : English
    Default                                  : No
    Forced                                   : No
    Statistics Tags Issue                    : mkvmerge v15.0.0 ('Duel with the Devil') 64-bit 2017-11-20 23:42:15 / mkvmerge v15.0.0 ('Duel with the Devil') 64-bit 2017-11-20 23:42:15 / UTC 2017-11-18T19:18:16Z
    FromStats_BitRate                        : 61
    FromStats_Duration                       : 01:24:31.733000000
    FromStats_FrameCount                     : 1195
    FromStats_StreamSize                     : 38957

    Menu
    00:00:00.000                             : :(01)00:00:00:000
    00:03:19.616                             : :(02)00:03:19:616
    00:08:24.838                             : :(03)00:08:24:837
    00:13:50.955                             : :(04)00:13:50:955
    00:17:34.887                             : :(05)00:17:34:887
    00:20:53.836                             : :(06)00:20:53:835
    00:25:34.241                             : :(07)00:25:34:241
    00:27:04.748                             : :(08)00:27:04:748
    00:34:58.847                             : :(09)00:34:58:846
    00:38:28.848                             : :(10)00:38:28:848
    00:43:50.795                             : :(11)00:43:50:794
    00:49:25.629                             : :(12)00:49:25:629
    00:51:59.074                             : :(13)00:51:59:074
    00:53:59.737                             : :(14)00:53:59:736
    00:57:26.693                             : :(15)00:57:26:651
    01:03:07.242                             : :(16)01:03:07:241
    01:09:42.553                             : :(17)01:09:42:553
    01:11:28.451                             : :(18)01:11:28:450
    01:14:22.458                             : :(19)01:14:22:457
    01:17:15.381                             : :(20)01:17:15:380
    01:21:48.904                             : :(21)01:21:48:903
    01:26:00.364                             : :(22)01:26:00:321

     

  • Peso: 4.37 GiB

Sinopsis

Una hermosa joven llamada Bella acepta alojarse en un castillo con una bestia a cambio de la libertad de su padre. La bestia es, en realidad, un príncipe encantado. Para romper el hechizo, deberá ganarse el amor de una preciosa dama antes de que caiga el último pétalo de una rosa encantada.

Ficha técnica

Video trailer de la película

Enlaces de descarga

Rip de Bluray

Descargar La bella y la bestia (1991) EXTENDED Full 1080p Latino




Aportes de DPeliculasHDmega la pass es:dpeliculashdmega.org Aportes de CinemaniaHD la pass es:cinemaniahdd.com

Películas relacionadas

  • Mision: Imposible 2 (2000) Full 1080p Latino

    2000
    Mision: Imposible 2 (2000) Full 1080p Latino

    3.0 2h 3m 2000

    Descargar Mision: Imposible 2 (2000) Full 1080p Latino, Mega, Google Drive. El agente especial Ethan...

    Director: William H. Burton Jr.

    Género: Acción

    Actores: William Mapother

  • Mision: Imposible (1996) Full 1080p Latino

    1996
    Mision: Imposible (1996) Full 1080p Latino

    3.7 1h 50m 1996

    Mission: Impossible (1996) Full 1080p Latino, Mega, Google Drive. Ethan Hunt es un superespía capaz...

    Director: Nick Moore

    Género: Acción

    Actores: Ving Rhames

  • Los increíbles 2 (2018) Full 1080p Latino

    2018
    Los increíbles 2 (2018) Full 1080p Latino

    4.4 1h 58m 2018

    Helen tiene que liderar una campaña para que los superhéroes regresen, mientras Bob vive su vida "normal"...

    Director: Seong-Young Kim

    Género: Acción

    Actores: Usher

  • Cambio de princesa (2018) NF 1080p Latino

    2018
    Cambio de princesa (2018) NF 1080p Latino

    0.0 1h 41m 2018

    Una repostera de Chicago y una futura princesa descubren que parecen gemelas, así que idean un plan...

    Director: Mike Rohl

    Género: Comedia

    Actores: Vanessa Hudgens

Comentarios 4
  • Byron - 28 noviembre, 2017

    No aparecen los links de mega, arreglar por favor

    • Dpelis2 - 29 noviembre, 2017

      Links Agregados

  • Ragnarok - 21 noviembre, 2017

    Gracias!…. Suban por favor toda la colección de Disney!

    • Dpelis2 - 21 noviembre, 2017

      En eso estamos. Saludos