×

¿Problemas para descargar con Mozilla, EDGE? Deshabilita la opción "Abrir vinculos en una pestaña nueva" tal como lo muestra ésta imagen.

La Bella Durmiente (1959) REMUX 1080p Latino – CMHDD

328 vistas

Información de La Bella Durmiente (1959) REMUX 1080p Latino – CMHDD

Datos de la película

  • Calidad:
  • Audio: Español Latino AC3 5.1 BLURAY - Ingles DTS 5.1 BLURAY
  • Subtitulos: Español Latino SRT- FORZADOS SRT
  • Resolución: 1920x1080p
  • Formato: MKV
  • Codec: H.264
  • Encoder: Dracarys
  • Mediainfo: Clic para Mostrar Datos Ver
  • Format                      : Matroska
    Format version              : Version 4
    File size                   : 14.3 GiB
    Duration                    : 1 h 15 min
    Overall bit rate mode       : Variable
    Overall bit rate            : 27.3 Mb/s
    Movie name                  : La bella durmiente (1959) REMUX 1080p Latino - CMHDD
    Encoded date                : UTC 2020-06-22 20:31:27
    Writing application         : mkvmerge v46.0.0 ('No Deeper Escape') 64-bit
    Writing library             : libebml v1.3.10 + libmatroska v1.5.2

    Video
    ID                          : 1
    Format                      : AVC
    Format/Info                 : Advanced Video Codec
    Format profile              : High@L4.1
    Format settings             : CABAC / 4 Ref Frames
    Format settings, CABAC      : Yes
    Format settings, Reference  : 4 frames
    Codec ID                    : V_MPEG4/ISO/AVC
    Duration                    : 1 h 15 min
    Bit rate mode               : Variable
    Bit rate                    : 24.0 Mb/s
    Maximum bit rate            : 30.0 Mb/s
    Width                       : 1 920 pixels
    Height                      : 1 080 pixels
    Display aspect ratio        : 16:9
    Frame rate mode             : Constant
    Frame rate                  : 23.976 (24000/1001) FPS
    Color space                 : YUV
    Chroma subsampling          : 4:2:0
    Bit depth                   : 8 bits
    Scan type                   : Progressive
    Bits/(Pixel*Frame)          : 0.484
    Stream size                 : 12.6 GiB (88%)
    Default                     : Yes
    Forced                      : No
    Color range                 : Limited
    Color primaries             : BT.709
    Transfer characteristics    : BT.709
    Matrix coefficients         : BT.709

    Audio #1
    ID                          : 2
    Format                      : AC-3
    Format/Info                 : Audio Coding 3
    Commercial name             : Dolby Digital
    Codec ID                    : A_AC3
    Duration                    : 1 h 15 min
    Bit rate mode               : Constant
    Bit rate                    : 640 kb/s
    Channel(s)                  : 6 channels
    Channel layout              : L R C LFE Ls Rs
    Sampling rate               : 48.0 kHz
    Frame rate                  : 31.250 FPS (1536 SPF)
    Compression mode            : Lossy
    Stream size                 : 344 MiB (2%)
    Language                    : Spanish
    Service kind                : Complete Main
    Default                     : Yes
    Forced                      : No

    Audio #2
    ID                          : 3
    Format                      : DTS XLL
    Format/Info                 : Digital Theater Systems
    Commercial name             : DTS-HD Master Audio
    Codec ID                    : A_DTS
    Duration                    : 1 h 15 min
    Bit rate mode               : Variable
    Bit rate                    : 2 591 kb/s
    Channel(s)                  : 8 channels
    Channel layout              : C L R LFE Lb Rb Lss Rss
    Sampling rate               : 48.0 kHz
    Frame rate                  : 93.750 FPS (512 SPF)
    Bit depth                   : 16 bits
    Compression mode            : Lossless
    Stream size                 : 1.36 GiB (9%)
    Language                    : English
    Default                     : No
    Forced                      : No

    Text #1
    ID                          : 4
    Format                      : PGS
    Muxing mode                 : zlib
    Codec ID                    : S_HDMV/PGS
    Codec ID/Info               : Picture based subtitle format used on BDs/HD-DVDs
    Duration                    : 1 h 14 min
    Bit rate                    : 25.0 kb/s
    Count of elements           : 1154
    Stream size                 : 13.3 MiB (0%)
    Language                    : Spanish
    Default                     : No
    Forced                      : No

    Text #2
    ID                          : 5
    Format                      : UTF-8
    Codec ID                    : S_TEXT/UTF8
    Codec ID/Info               : UTF-8 Plain Text
    Duration                    : 1 h 14 min
    Bit rate                    : 41 b/s
    Count of elements           : 577
    Stream size                 : 22.6 KiB (0%)
    Language                    : Spanish
    Default                     : No
    Forced                      : No

    Text #3
    ID                          : 6
    Format                      : UTF-8
    Codec ID                    : S_TEXT/UTF8
    Codec ID/Info               : UTF-8 Plain Text
    Duration                    : 1 min 44 s
    Bit rate                    : 2 b/s
    Count of elements           : 2
    Stream size                 : 36.0 Bytes (0%)
    Title                       : Forzados
    Language                    : Spanish
    Default                     : Yes
    Forced                      : No

    Text #4
    ID                          : 7
    Format                      : PGS
    Muxing mode                 : zlib
    Codec ID                    : S_HDMV/PGS
    Codec ID/Info               : Picture based subtitle format used on BDs/HD-DVDs
    Duration                    : 1 min 44 s
    Bit rate                    : 2 002 b/s
    Count of elements           : 4
    Stream size                 : 25.7 KiB (0%)
    Title                       : Forzados
    Language                    : Spanish
    Default                     : No
    Forced                      : No
     

  • Peso: 14.3 GiB

Sinopsis

Había una vez dos reyes que esperaban con alegría el nacimiento de su primera hija, a la que llamarían Aurora. Para celebrarlo, organizaron una fiesta a la que invitaron a todos los habitantes del reino. Pero olvidaron invitar a la malvada bruja Maléfica que, enfurecida, lanzó un terrible hechizo sobre la princesa: el día de su décimosexto cumpleaños, se pincharía con el uso de una rueca y moriría. Pero sus tres divertidas hadas madrinas descubren una forma de romper el maleficio: no morirá, permanecerá dormida hasta que un valiente príncipe la bese…

Ficha técnica

Video trailer de la película

Enlaces de descarga

Rip de Bluray

Descargar La Bella Durmiente (1959) REMUX 1080p Latino – CMHDD




Aportes de DPeliculasHDmega la pass es:dpeliculashdmega.org Aportes de CinemaniaHD la pass es:cinemaniahdd.com
Guardado en : Animación , Familia , Fantasía , Remux , Romance

Películas relacionadas

descargar La Bella Durmiente (1959) REMUX 1080p Latino – CMHDD 1080p gratis, La Bella Durmiente (1959) REMUX 1080p Latino – CMHDD mega 1 link, La Bella Durmiente (1959) REMUX 1080p Latino – CMHDD pelicula completa, descargar La Bella Durmiente (1959) REMUX 1080p Latino – CMHDD gratis en mega.

La Bella Durmiente (1959) REMUX 1080p Latino – CMHDD pelicula full hd, La Bella Durmiente (1959) REMUX 1080p Latino – CMHDD mega latino, La Bella Durmiente (1959) REMUX 1080p Latino – CMHDD 4k latino, La Bella Durmiente (1959) REMUX 1080p Latino – CMHDD pelicula completa, La Bella Durmiente (1959) REMUX 1080p Latino – CMHDD descargar gratis, descargar La Bella Durmiente (1959) REMUX 1080p Latino – CMHDD pelicula latino, La Bella Durmiente (1959) REMUX 1080p Latino – CMHDD 1 link mega, La Bella Durmiente (1959) REMUX 1080p Latino – CMHDD 1 link google drive, La Bella Durmiente (1959) REMUX 1080p Latino – CMHDD hd 1080p latino.
Comentarios 0