×

¿Problemas para descargar con Mozilla, EDGE? Deshabilita la opción "Abrir vinculos en una pestaña nueva" tal como lo muestra ésta imagen.

La Bella Durmiente (1959) Full HD 1080p Latino – CMHDD

405 vistas

Información de La Bella Durmiente (1959) Full HD 1080p Latino – CMHDD

Datos de la película

  • Calidad: Full 1080p
  • Audio: Español Latino AC3 5.1 BLURAY - Ingles DTS 5.1 BLURAY
  • Subtitulos: Español Latino SRT- FORZADOS SRT
  • Resolución: 1920x1080p
  • Formato: MKV
  • Codec: H.264
  • Encoder: Dracarys
  • Mediainfo: Clic para Mostrar Datos Ver
  • Format                      : Matroska
    Format version              : Version 4
    File size                   : 3.23 GiB
    Duration                    : 1 h 15 min
    Overall bit rate mode       : Variable
    Overall bit rate            : 6 161 kb/s
    Movie name                  : La bella durmiente (1959) Full HD 1080p Latino - CMHDD
    Encoded date                : UTC 2020-06-22 20:33:00
    Writing application         : mkvmerge v46.0.0 ('No Deeper Escape') 64-bit
    Writing library             : libebml v1.3.10 + libmatroska v1.5.2

    Video
    ID                          : 1
    Format                      : AVC
    Format/Info                 : Advanced Video Codec
    Format profile              : High@L4.1
    Format settings             : CABAC / 4 Ref Frames
    Format settings, CABAC      : Yes
    Format settings, Reference  : 4 frames
    Codec ID                    : V_MPEG4/ISO/AVC
    Duration                    : 1 h 15 min
    Bit rate                    : 2 919 kb/s
    Width                       : 1 920 pixels
    Height                      : 1 080 pixels
    Display aspect ratio        : 16:9
    Frame rate mode             : Constant
    Frame rate                  : 23.976 (24000/1001) FPS
    Color space                 : YUV
    Chroma subsampling          : 4:2:0
    Bit depth                   : 8 bits
    Scan type                   : Progressive
    Bits/(Pixel*Frame)          : 0.059
    Stream size                 : 1.53 GiB (47%)
    Writing library             : x264 core 157 r2935 545de2f
    Encoding settings           : cabac=1 / ref=4 / deblock=1:0:0 / analyse=0x3:0x133 / me=tesa / subme=11 / psy=1 / psy_rd=1.00:0.00 / mixed_ref=1 / me_range=24 / chroma_me=1 / trellis=2 / 8x8dct=1 / cqm=0 / deadzone=21,11 / fast_pskip=0 / chroma_qp_offset=-2 / threads=24 / lookahead_threads=6 / sliced_threads=0 / nr=0 / decimate=1 / interlaced=0 / bluray_compat=0 / constrained_intra=0 / bframes=16 / b_pyramid=2 / b_adapt=2 / b_bias=0 / direct=3 / weightb=1 / open_gop=0 / weightp=2 / keyint=240 / keyint_min=24 / scenecut=40 / intra_refresh=0 / rc_lookahead=60 / rc=crf / mbtree=1 / crf=20.0 / qcomp=0.60 / qpmin=0 / qpmax=69 / qpstep=4 / vbv_maxrate=62500 / vbv_bufsize=78125 / crf_max=0.0 / nal_hrd=none / filler=0 / ip_ratio=1.40 / aq=1:1.00
    Default                     : Yes
    Forced                      : No
    Color range                 : Limited
    Color primaries             : BT.709
    Transfer characteristics    : BT.709
    Matrix coefficients         : BT.709

    Audio #1
    ID                          : 2
    Format                      : AC-3
    Format/Info                 : Audio Coding 3
    Commercial name             : Dolby Digital
    Codec ID                    : A_AC3
    Duration                    : 1 h 15 min
    Bit rate mode               : Constant
    Bit rate                    : 640 kb/s
    Channel(s)                  : 6 channels
    Channel layout              : L R C LFE Ls Rs
    Sampling rate               : 48.0 kHz
    Frame rate                  : 31.250 FPS (1536 SPF)
    Compression mode            : Lossy
    Stream size                 : 344 MiB (10%)
    Language                    : Spanish
    Service kind                : Complete Main
    Default                     : Yes
    Forced                      : No

    Audio #2
    ID                          : 3
    Format                      : DTS XLL
    Format/Info                 : Digital Theater Systems
    Commercial name             : DTS-HD Master Audio
    Codec ID                    : A_DTS
    Duration                    : 1 h 15 min
    Bit rate mode               : Variable
    Bit rate                    : 2 591 kb/s
    Channel(s)                  : 8 channels
    Channel layout              : C L R LFE Lb Rb Lss Rss
    Sampling rate               : 48.0 kHz
    Frame rate                  : 93.750 FPS (512 SPF)
    Bit depth                   : 16 bits
    Compression mode            : Lossless
    Stream size                 : 1.36 GiB (42%)
    Language                    : English
    Default                     : No
    Forced                      : No

    Text #1
    ID                          : 4
    Format                      : PGS
    Muxing mode                 : zlib
    Codec ID                    : S_HDMV/PGS
    Codec ID/Info               : Picture based subtitle format used on BDs/HD-DVDs
    Duration                    : 1 h 14 min
    Bit rate                    : 25.0 kb/s
    Count of elements           : 1154
    Stream size                 : 13.3 MiB (0%)
    Language                    : Spanish
    Default                     : No
    Forced                      : No

    Text #2
    ID                          : 5
    Format                      : UTF-8
    Codec ID                    : S_TEXT/UTF8
    Codec ID/Info               : UTF-8 Plain Text
    Duration                    : 1 h 14 min
    Bit rate                    : 41 b/s
    Count of elements           : 577
    Stream size                 : 22.6 KiB (0%)
    Language                    : Spanish
    Default                     : No
    Forced                      : No

    Text #3
    ID                          : 6
    Format                      : UTF-8
    Codec ID                    : S_TEXT/UTF8
    Codec ID/Info               : UTF-8 Plain Text
    Duration                    : 1 min 44 s
    Bit rate                    : 2 b/s
    Count of elements           : 2
    Stream size                 : 36.0 Bytes (0%)
    Title                       : Forzados
    Language                    : Spanish
    Default                     : Yes
    Forced                      : No

    Text #4
    ID                          : 7
    Format                      : PGS
    Muxing mode                 : zlib
    Codec ID                    : S_HDMV/PGS
    Codec ID/Info               : Picture based subtitle format used on BDs/HD-DVDs
    Duration                    : 1 min 44 s
    Bit rate                    : 2 002 b/s
    Count of elements           : 4
    Stream size                 : 25.7 KiB (0%)
    Title                       : Forzados
    Language                    : Spanish
    Default                     : No
    Forced                      : No

    Menu
    00:00:00.000                : :Chapter 1
    00:01:47.316                : :Chapter 2
    00:02:57.844                : :Chapter 3
    00:04:55.462                : :Chapter 4
    00:05:51.059                : :Chapter 5
    00:07:37.791                : :Chapter 6
    00:09:54.928                : :Chapter 7
    00:11:44.078                : :Chapter 8
    00:15:42.775                : :Chapter 9
    00:17:47.316                : :Chapter 10
    00:22:40.526                : :Chapter 11
    00:24:15.454                : :Chapter 12
    00:25:34.783                : :Chapter 13
    00:29:42.281                : :Chapter 14
    00:33:04.357                : :Chapter 15
    00:36:01.951                : :Chapter 16
    00:40:21.878                : :Chapter 17
    00:44:22.160                : :Chapter 18
    00:46:40.006                : :Chapter 19
    00:48:26.570                : :Chapter 20
    00:52:09.126                : :Chapter 21
    00:53:43.262                : :Chapter 22
    00:56:33.724                : :Chapter 23
    00:58:51.194                : :Chapter 24
    01:02:10.977                : :Chapter 25
    01:05:25.046                : :Chapter 26
    01:07:44.811                : :Chapter 27
    01:08:49.876                : :Chapter 28
    01:10:45.491                : :Chapter 29
    01:12:24.090                : :Chapter 30

  • Peso: 3.23 GiB

Sinopsis

Había una vez dos reyes que esperaban con alegría el nacimiento de su primera hija, a la que llamarían Aurora. Para celebrarlo, organizaron una fiesta a la que invitaron a todos los habitantes del reino. Pero olvidaron invitar a la malvada bruja Maléfica que, enfurecida, lanzó un terrible hechizo sobre la princesa: el día de su décimosexto cumpleaños, se pincharía con el uso de una rueca y moriría. Pero sus tres divertidas hadas madrinas descubren una forma de romper el maleficio: no morirá, permanecerá dormida hasta que un valiente príncipe la bese…

Ficha técnica

Video trailer de la película

Enlaces de descarga

Rip de Bluray

Descargar La Bella Durmiente (1959) Full HD 1080p Latino – CMHDD




Aportes de DPeliculasHDmega la pass es:dpeliculashdmega.org Aportes de CinemaniaHD la pass es:cinemaniahdd.com

Películas relacionadas

descargar La Bella Durmiente (1959) Full HD 1080p Latino – CMHDD Full 1080p 1080p gratis, La Bella Durmiente (1959) Full HD 1080p Latino – CMHDD Full 1080p mega 1 link, La Bella Durmiente (1959) Full HD 1080p Latino – CMHDD Full 1080p pelicula completa, descargar La Bella Durmiente (1959) Full HD 1080p Latino – CMHDD Full 1080p gratis en mega.

La Bella Durmiente (1959) Full HD 1080p Latino – CMHDD pelicula full hd, La Bella Durmiente (1959) Full HD 1080p Latino – CMHDD mega latino, La Bella Durmiente (1959) Full HD 1080p Latino – CMHDD 4k latino, La Bella Durmiente (1959) Full HD 1080p Latino – CMHDD pelicula completa, La Bella Durmiente (1959) Full HD 1080p Latino – CMHDD descargar gratis, descargar La Bella Durmiente (1959) Full HD 1080p Latino – CMHDD pelicula latino, La Bella Durmiente (1959) Full HD 1080p Latino – CMHDD 1 link mega, La Bella Durmiente (1959) Full HD 1080p Latino – CMHDD 1 link google drive, La Bella Durmiente (1959) Full HD 1080p Latino – CMHDD hd 1080p latino.
Comentarios 0