×

¿Problemas para descargar con Mozilla, EDGE? Deshabilita la opción "Abrir vinculos en una pestaña nueva" tal como lo muestra ésta imagen.

Batman y Superman: La batalla de los Super hijos (2022) HD 1080p Latino

60 vistas

Información de Batman y Superman: La batalla de los Super hijos (2022) HD 1080p Latino

Datos de la película

  • Calidad: 1080p
  • Audio: Español Latino AC3 5.1 BLURAY - Ingles AC3 5.1 BLURAY
  • Subtitulos: Español Latino SRT- FORZADOS SRT
  • Resolución: 1920x1080p
  • Formato: MKV
  • Codec: H.264
  • Encoder: Melkor
  • Mediainfo: Clic para Mostrar Datos Ver
  • Batman Y Superman. La Batalla De Los Super Hijos (2022) HD 1080p Latino.mkv
    Format                      : Matroska
    Format version              : Version 4
    File size                   : 2.55 GiB
    Duration                    : 1 h 19 min
    Overall bit rate            : 4 590 kb/s
    Movie name                  : Batman and Superman. Battle of the Super Sons (2022) CinemaniaHDD.Net
    Encoded date                : UTC 2022-10-15 14:36:27
    Writing application         : mkvmerge v56.1.0 ('My Friend') 64-bit
    Writing library             : libebml v1.4.2 + libmatroska v1.6.4
    Attachments                 : CINEMANIAHD.png

    Video
    ID                          : 1
    Format                      : AVC
    Format/Info                 : Advanced Video Codec
    Format profile              : High@L4.1
    Format settings             : CABAC / 4 Ref Frames
    Format settings, CABAC      : Yes
    Format settings, Reference  : 4 frames
    Codec ID                    : V_MPEG4/ISO/AVC
    Duration                    : 1 h 19 min
    Bit rate                    : 3 500 kb/s
    Width                       : 1 920 pixels
    Height                      : 1 080 pixels
    Display aspect ratio        : 16:9
    Frame rate mode             : Constant
    Frame rate                  : 23.976 (24000/1001) FPS
    Color space                 : YUV
    Chroma subsampling          : 4:2:0
    Bit depth                   : 8 bits
    Scan type                   : Progressive
    Bits/(Pixel*Frame)          : 0.070
    Stream size                 : 1.94 GiB (76%)
    Title                       : HD1080p [CinemaniaHDD]
    Writing library             : x264 core 163 r3059 b684ebe0
    Encoding settings           : cabac=1 / ref=4 / deblock=1:1:1 / analyse=0x3:0x133 / me=umh / subme=9 / psy=1 / psy_rd=0.40:0.00 / mixed_ref=1 / me_range=16 / chroma_me=1 / trellis=2 / 8x8dct=1 / cqm=0 / deadzone=21,11 / fast_pskip=1 / chroma_qp_offset=-2 / threads=24 / lookahead_threads=2 / sliced_threads=0 / nr=0 / decimate=1 / interlaced=0 / bluray_compat=0 / constrained_intra=0 / bframes=5 / b_pyramid=2 / b_adapt=2 / b_bias=0 / direct=3 / weightb=1 / open_gop=0 / weightp=2 / keyint=240 / keyint_min=24 / scenecut=40 / intra_refresh=0 / rc_lookahead=60 / rc=2pass / mbtree=1 / bitrate=3500 / ratetol=1.0 / qcomp=0.60 / qpmin=0 / qpmax=69 / qpstep=4 / cplxblur=20.0 / qblur=0.5 / vbv_maxrate=62500 / vbv_bufsize=78125 / nal_hrd=none / filler=0 / ip_ratio=1.40 / aq=1:0.60
    Default                     : Yes
    Forced                      : Yes
    Color range                 : Limited
    Color primaries             : BT.709
    Transfer characteristics    : BT.709
    Matrix coefficients         : BT.709

    Audio #1
    ID                          : 2
    Format                      : AC-3
    Format/Info                 : Audio Coding 3
    Commercial name             : Dolby Digital
    Codec ID                    : A_AC3
    Duration                    : 1 h 19 min
    Bit rate mode               : Constant
    Bit rate                    : 640 kb/s
    Channel(s)                  : 6 channels
    Channel layout              : L R C LFE Ls Rs
    Sampling rate               : 48.0 kHz
    Frame rate                  : 31.250 FPS (1536 SPF)
    Compression mode            : Lossy
    Delay relative to video     : -5 ms
    Stream size                 : 364 MiB (14%)
    Title                       : Español Latino [CinemaniaHDD]
    Language                    : Spanish
    Service kind                : Complete Main
    Default                     : Yes
    Forced                      : Yes

    Audio #2
    ID                          : 3
    Format                      : AC-3
    Format/Info                 : Audio Coding 3
    Commercial name             : Dolby Digital
    Codec ID                    : A_AC3
    Duration                    : 1 h 19 min
    Bit rate mode               : Constant
    Bit rate                    : 448 kb/s
    Channel(s)                  : 6 channels
    Channel layout              : L R C LFE Ls Rs
    Sampling rate               : 48.0 kHz
    Frame rate                  : 31.250 FPS (1536 SPF)
    Compression mode            : Lossy
    Delay relative to video     : -5 ms
    Stream size                 : 255 MiB (10%)
    Title                       : Ingles [CinemaniaHDD]
    Language                    : English
    Service kind                : Complete Main
    Default                     : No
    Forced                      : No

    Text #1
    ID                          : 4
    Format                      : UTF-8
    Codec ID                    : S_TEXT/UTF8
    Codec ID/Info               : UTF-8 Plain Text
    Duration                    : 1 h 2 min
    Bit rate                    : 0 b/s
    Count of elements           : 3
    Stream size                 : 120 Bytes (0%)
    Title                       : Forzados-SRT [CinemaniaHDD]
    Language                    : Spanish
    Default                     : Yes
    Forced                      : Yes

    Text #2
    ID                          : 5
    Format                      : UTF-8
    Codec ID                    : S_TEXT/UTF8
    Codec ID/Info               : UTF-8 Plain Text
    Duration                    : 1 h 14 min
    Bit rate                    : 56 b/s
    Count of elements           : 894
    Stream size                 : 30.9 KiB (0%)
    Title                       : Español-SRT [CinemaniaHDD]
    Language                    : Spanish
    Default                     : No
    Forced                      : No

    Menu
    00:00:00.000                : Chapter 01
    00:05:46.346                : Chapter 02
    00:14:54.268                : Chapter 03
    00:24:51.323                : Chapter 04
    00:33:27.172                : Chapter 05
    00:43:20.139                : Chapter 06
    00:52:30.981                : Chapter 07
    01:01:17.507                : Chapter 08
    01:10:13.584                : Chapter 09
    01:16:20.534                : Chapter 10

  • Peso: 2.55 GiB

Sinopsis

Descargar Batman y Superman: La batalla de los Super hijos (2022) HD 1080p Latino. Comienza cuando Jonathan Kent, de once años, descubre que tiene superpoderes, empujando al semi kryptoniano al complicado mundo de los superhéroes y los supervillanos, que ahora están siendo atacados por una fuerza alienígena malvada conocida como Starro”.

Ficha técnica

Video trailer de la película

Enlaces de descarga

Rip de Bluray

Descargar Batman y Superman: La batalla de los Super hijos (2022) HD 1080p Latino




Aportes de DPeliculasHDmega la pass es:dpeliculashdmega.org Aportes de CinemaniaHD la pass es:cinemaniahdd.com

Películas relacionadas

descargar Batman y Superman: La batalla de los Super hijos (2022) HD 1080p Latino 1080p 1080p gratis, Batman y Superman: La batalla de los Super hijos (2022) HD 1080p Latino 1080p mega 1 link, Batman y Superman: La batalla de los Super hijos (2022) HD 1080p Latino 1080p pelicula completa, descargar Batman y Superman: La batalla de los Super hijos (2022) HD 1080p Latino 1080p gratis en mega.

Batman y Superman: La batalla de los Super hijos (2022) HD 1080p Latino pelicula full hd, Batman y Superman: La batalla de los Super hijos (2022) HD 1080p Latino mega latino, Batman y Superman: La batalla de los Super hijos (2022) HD 1080p Latino 4k latino, Batman y Superman: La batalla de los Super hijos (2022) HD 1080p Latino pelicula completa, Batman y Superman: La batalla de los Super hijos (2022) HD 1080p Latino descargar gratis, descargar Batman y Superman: La batalla de los Super hijos (2022) HD 1080p Latino pelicula latino, Batman y Superman: La batalla de los Super hijos (2022) HD 1080p Latino 1 link mega, Batman y Superman: La batalla de los Super hijos (2022) HD 1080p Latino 1 link google drive, Batman y Superman: La batalla de los Super hijos (2022) HD 1080p Latino hd 1080p latino.
Comentarios 0