La Balada de Lefty Brown (2017) Full 1080p Latino

907 vistas
1 estrella2 estrellas3 estrellas4 estrellas5 estrellas (3 votos, promedio: 3,67 de 5)
Cargando…

Información de La Balada de Lefty Brown (2017) Full 1080p Latino

Datos de la película

  • Calidad: Full 1080p
  • Audio: Se especifica abajo de la Sinopsis
  • Subtitulos: Español Latino PGS - Ingles PGS
  • Resolución: 1920x1080p
  • Formato: MKV
  • Codec: H.264
  • Encoder: CinefiloCool
  • Mediainfo: Clic para Mostrar Datos Ver
  • La balada de Lefty Brown (2017) Full 1080p Latino.mkv
    Format                      : Matroska
    Format version              : Version 4 / Version 2
    File size                   : 8.01 GiB
    Duration                    : 1 h 51 min
    Overall bit rate            : 10.3 Mb/s
    Movie name                  : CinemaniaHDD.Net
    Encoded date                : UTC 2018-10-16 01:59:14 / UTC 2018-10-15T08:33:07Z
    Writing application         : mkvmerge v25.0.0 ('Prog Noir') 64-bit
    Writing library             : libebml v1.3.6 + libmatroska v1.4.9 / Lavf57.7.2

    Video
    ID                          : 1
    Format                      : AVC
    Format/Info                 : Advanced Video Codec
    Format profile              : [email protected]
    Format settings             : CABAC / 4 Ref Frames
    Format settings, CABAC      : Yes
    Format settings, RefFrames  : 4 frames
    Codec ID                    : V_MPEG4/ISO/AVC
    Duration                    : 1 h 51 min
    Bit rate                    : 8 335 kb/s
    Width                       : 1 920 pixels
    Height                      : 1 080 pixels
    Display aspect ratio        : 16:9
    Frame rate mode             : Constant
    Frame rate                  : 23.976 (24000/1001) FPS
    Color space                 : YUV
    Chroma subsampling          : 4:2:0
    Bit depth                   : 8 bits
    Scan type                   : Progressive
    Bits/(Pixel*Frame)          : 0.168
    Stream size                 : 6.48 GiB (81%)
    Title                       : Full HD1080p [Bluray]
    Writing library             : x264 core 155 r2893 b00bcaf
    Encoding settings           : cabac=1 / ref=4 / deblock=1:0:0 / analyse=0x3:0x133 / me=esa / subme=10 / psy=1 / psy_rd=1.00:0.00 / mixed_ref=1 / me_range=24 / chroma_me=1 / trellis=2 / 8x8dct=1 / cqm=0 / deadzone=21,11 / fast_pskip=1 / chroma_qp_offset=-2 / threads=34 / lookahead_threads=5 / sliced_threads=0 / nr=0 / decimate=1 / interlaced=0 / bluray_compat=0 / constrained_intra=0 / bframes=8 / b_pyramid=2 / b_adapt=2 / b_bias=0 / direct=3 / weightb=1 / open_gop=0 / weightp=2 / keyint=240 / keyint_min=24 / scenecut=40 / intra_refresh=0 / rc_lookahead=60 / rc=crf / mbtree=1 / crf=20.0 / qcomp=0.60 / qpmin=0 / qpmax=69 / qpstep=4 / vbv_maxrate=62500 / vbv_bufsize=78125 / crf_max=0.0 / nal_hrd=none / filler=0 / ip_ratio=1.40 / aq=1:1.00
    Default                     : Yes
    Forced                      : No
    Color range                 : Limited
    Color primaries             : BT.709
    Transfer characteristics    : BT.709
    Matrix coefficients         : BT.709
    Statistics Tags Issue       : mkvmerge v25.0.0 ('Prog Noir') 64-bit 2018-10-16 01:59:14 / mkvmerge v25.0.0 ('Prog Noir') 64-bit 2018-10-16 01:59:14 / UTC 2018-10-15T08:33:07Z
    FromStats_BitRate           : 8524080
    FromStats_Duration          : 01:51:14.627000000
    FromStats_FrameCount        : 160031
    FromStats_StreamSize        : 7111882300

    Audio #1
    ID                          : 2
    Format                      : AC-3
    Format/Info                 : Audio Coding 3
    Format settings, Endianness : Big
    Codec ID                    : A_AC3
    Duration                    : 1 h 51 min
    Bit rate mode               : Constant
    Bit rate                    : 256 kb/s
    Channel(s)                  : 2 channels
    Channel positions           : Front: L R
    Sampling rate               : 48.0 kHz
    Frame rate                  : 31.250 FPS (1536 SPF)
    Bit depth                   : 16 bits
    Compression mode            : Lossy
    Stream size                 : 204 MiB (2%)
    Title                       : AC3_2.0_Captura_Esp
    Language                    : Spanish
    Service kind                : Complete Main
    Default                     : Yes
    Forced                      : No
    Statistics Tags Issue       : mkvmerge v25.0.0 ('Prog Noir') 64-bit 2018-10-16 01:59:14 / mkvmerge v25.0.0 ('Prog Noir') 64-bit 2018-10-16 01:59:14 / UTC 2018-10-15T08:33:07Z
    FromStats_BitRate           : 256000
    FromStats_Duration          : 01:51:14.688000000
    FromStats_FrameCount        : 208584
    FromStats_StreamSize        : 213590016

    Audio #2
    ID                          : 3
    Format                      : DTS
    Format/Info                 : Digital Theater Systems
    Mode                        : 16
    Format settings, Endianness : Big
    Codec ID                    : A_DTS
    Duration                    : 1 h 51 min
    Bit rate mode               : Constant
    Bit rate                    : 1 509 kb/s
    Channel(s)                  : 6 channels
    Channel positions           : Front: L C R, Side: L R, LFE
    Sampling rate               : 48.0 kHz
    Frame rate                  : 93.750 FPS (512 SPF)
    Bit depth                   : 24 bits
    Compression mode            : Lossy
    Stream size                 : 1.17 GiB (15%)
    Title                       : DTS_5.1_Bluray_Eng
    Language                    : English
    Default                     : No
    Forced                      : No
    Statistics Tags Issue       : mkvmerge v25.0.0 ('Prog Noir') 64-bit 2018-10-16 01:59:14 / mkvmerge v25.0.0 ('Prog Noir') 64-bit 2018-10-16 01:59:14 / UTC 2018-10-15T08:33:07Z
    FromStats_BitRate           : 1508999
    FromStats_Duration          : 01:51:14.667000000
    FromStats_FrameCount        : 625750
    FromStats_StreamSize        : 1259009000

    Text #1
    ID                          : 4
    Format                      : PGS
    Muxing mode                 : zlib
    Codec ID                    : S_HDMV/PGS
    Codec ID/Info               : Picture based subtitle format used on BDs/HD-DVDs
    Title                       : Sub_Forzados [PGS]
    Language                    : Spanish
    Default                     : No
    Forced                      : No
    Statistics Tags Issue       : mkvmerge v25.0.0 ('Prog Noir') 64-bit 2018-10-16 01:59:14 / mkvmerge v25.0.0 ('Prog Noir') 64-bit 2018-10-16 01:59:14 / UTC 2018-10-15T08:33:07Z
    FromStats_BitRate           : 83
    FromStats_Duration          : 01:14:42.060000000
    FromStats_FrameCount        : 6
    FromStats_StreamSize        : 46858

    Text #2
    ID                          : 5
    Format                      : PGS
    Muxing mode                 : zlib
    Codec ID                    : S_HDMV/PGS
    Codec ID/Info               : Picture based subtitle format used on BDs/HD-DVDs
    Title                       : Sub_Esp [PGS]
    Language                    : Spanish
    Default                     : No
    Forced                      : No
    Statistics Tags Issue       : mkvmerge v25.0.0 ('Prog Noir') 64-bit 2018-10-16 01:59:14 / mkvmerge v25.0.0 ('Prog Noir') 64-bit 2018-10-16 01:59:14 / UTC 2018-10-15T08:33:07Z
    FromStats_BitRate           : 12116
    FromStats_Duration          : 01:50:31.798000000
    FromStats_FrameCount        : 1945
    FromStats_StreamSize        : 10044206

    Text #3
    ID                          : 6
    Format                      : PGS
    Muxing mode                 : zlib
    Codec ID                    : S_HDMV/PGS
    Codec ID/Info               : Picture based subtitle format used on BDs/HD-DVDs
    Title                       : Sub_Eng [PGS]
    Language                    : English
    Default                     : No
    Forced                      : No
    Statistics Tags Issue       : mkvmerge v25.0.0 ('Prog Noir') 64-bit 2018-10-16 01:59:14 / mkvmerge v25.0.0 ('Prog Noir') 64-bit 2018-10-16 01:59:14 / UTC 2018-10-15T08:33:07Z
    FromStats_BitRate           : 26022
    FromStats_Duration          : 01:48:15.238000000
    FromStats_FrameCount        : 2981
    FromStats_StreamSize        : 21127400

    Menu
    00:00:00.000                : :Chapter 1
    00:07:19.981                : :Chapter 2
    00:17:19.872                : :Chapter 3
    00:26:12.279                : :Chapter 4
    00:37:32.250                : :Chapter 5
    00:47:01.444                : :Chapter 6
    00:54:11.623                : :Chapter 7
    01:01:58.924                : :Chapter 8
    01:09:31.042                : :Chapter 9
    01:18:51.018                : :Chapter 10
    01:25:03.348                : :Chapter 11
    01:33:01.993                : :Chapter 12
    01:44:44.612                : :Chapter 13

  • Peso: 8.01 GiB

Sinopsis

Descargar La Balada de Lefty Brown (2017) Full 1080p Latino; Mega, Google Drive. Durante décadas, Lefty (Bill Pullman) ha cabalgado junto a Edward Johnson (Peter Fonda), ayudándole a sobrevivir en el salvaje Oeste. Cuando Lefty es elegido para ayudar al primer senador del nuevo estado de Montana, Johnson se va a Washington y deja su rancho a Lefty, lo que despierta cierta inquietud en la señora Johnson (Kathy Baker), que duda de sus capacidades.

Audio Español Latino AC3 2.0 Capturado – Ingles DTS 5.1 Bluray

Ficha técnica

  • Titulo original: The Ballad of Lefty Brown
  • Fecha de lanzamiento: 15-12-2017 (United States of America)
  • Director: Jared Moshé
  • Género: FULL 1080p Plateadas, Western
  • Puntuación: 3.7 3 votos
  • Duración:
    1h 51m

Video trailer de la película

Enlaces de descarga

Rip de Bluray

Descargar La Balada de Lefty Brown (2017) Full 1080p Latino




Aportes de DPeliculasHDmega la pass es:dpeliculashdmega.org Aportes de CinemaniaHD la pass es:cinemaniahdd.com
Guardado en : FULL 1080p Plateadas , Western

Películas relacionadas

  • WiFi Ralph (2018) Full 1080p Latino

    2018
    WiFi Ralph (2018) Full 1080p Latino

    5.0 1h 52m 2018

    Descargar WiFi Ralph (2018) Full 1080p Latino, Mega, Google Drive, Torrent. Ralph sale de los recreativos...

    Director: Rich Moore

    Género: Animación

    Actores: Wayne Sermon

  • The Front Runner (2018) Full 1080p Latino

    2018
    The Front Runner (2018) Full 1080p Latino

    0.0 1h 53m 2018

    Narra la campaña presidencial del senador estadounidense Gary Hart, que tuvo lugar en 1988, momento...

    Director: Jason Reitman

    Género: Drama

    Actores: William Walker

  • Robin Hood orígenes (2018) Full 1080p Latino

    2018
    Robin Hood orígenes (2018) Full 1080p Latino

    5.0 1h 56m 2018

    Cuando el joven Robin Hood (Taron Egerton) regresa a su hogar, endurecido, tras luchar como guerrero...

    Director: Otto Bathurst

    Género: Acción

    Actores: Yasen Atour

  • Overlord (2018) Full HD 1080p Latino

    2018
    Overlord (2018) Full HD 1080p Latino

    5.0 1h 50m 2018

    Segunda Guerra Mundial. En la víspera del Día D, dos paracaidistas estadounidenses tienen una misión...

    Director: Julius Avery

    Género: Acción

    Actores: Wyatt Russell

Comentarios 0