×

¿Problemas para descargar con Mozilla, EDGE? Deshabilita la opción "Abrir vinculos en una pestaña nueva" tal como lo muestra ésta imagen.

Fullmetal Alchemist: La Alquimia Final (2022) NF WEB-DL 1080p Latino

78 vistas

Información de Fullmetal Alchemist: La Alquimia Final (2022) NF WEB-DL 1080p Latino

Datos de la película

  • Calidad: WEBDL
  • Audio: Se especifica abajo de la Sinopsis
  • Subtitulos: Español Latino SRT- FORZADOS SRT
  • Resolución: 1920x1080p
  • Formato: MKV
  • Codec: H.264
  • Encoder: Melkor
  • Mediainfo: Clic para Mostrar Datos Ver
  • Fullmetal Alchemist La Alquimia Final (2022) NF WebDL 1080p Latino.mkv
    Format                      : Matroska
    Format version              : Version 4
    File size                   : 4.48 GiB
    Duration                    : 2 h 23 min
    Overall bit rate mode       : Variable
    Overall bit rate            : 4 450 kb/s
    Movie name                  : Fullmetal Alchemist The Final Alchemy (2022) CinemaniaHDD.Net
    Encoded date                : UTC 2022-09-25 22:22:22
    Writing application         : mkvmerge v56.1.0 ('My Friend') 64-bit
    Writing library             : libebml v1.4.2 + libmatroska v1.6.4
    Attachments                 : CINEMANIAHD.png

    Video
    ID                          : 1
    Format                      : AVC
    Format/Info                 : Advanced Video Codec
    Format profile              : High@L4
    Format settings             : CABAC / 4 Ref Frames
    Format settings, CABAC      : Yes
    Format settings, Reference  : 4 frames
    Codec ID                    : V_MPEG4/ISO/AVC
    Duration                    : 2 h 23 min
    Bit rate mode               : Variable
    Bit rate                    : 2 527 kb/s
    Maximum bit rate            : 20.0 Mb/s
    Width                       : 1 920 pixels
    Height                      : 1 080 pixels
    Display aspect ratio        : 16:9
    Frame rate mode             : Constant
    Frame rate                  : 23.976 (24000/1001) FPS
    Color space                 : YUV
    Chroma subsampling          : 4:2:0
    Bit depth                   : 8 bits
    Scan type                   : Progressive
    Bits/(Pixel*Frame)          : 0.051
    Stream size                 : 2.54 GiB (57%)
    Title                       : Web HD1080p [CinemaniaHDD]
    Writing library             : x264 core 148 r2727 7d026e8
    Encoding settings           : cabac=1 / ref=4 / deblock=1:0:0 / analyse=0x3:0x111 / me=umh / subme=10 / psy=1 / psy_rd=1.00:0.00 / mixed_ref=1 / me_range=120 / chroma_me=1 / trellis=2 / 8x8dct=1 / cqm=0 / deadzone=21,11 / fast_pskip=1 / chroma_qp_offset=-2 / threads=8 / lookahead_threads=2 / sliced_threads=0 / nr=0 / decimate=1 / interlaced=0 / bluray_compat=0 / stitchable=1 / constrained_intra=0 / bframes=16 / b_pyramid=2 / b_adapt=2 / b_bias=0 / direct=3 / weightb=1 / open_gop=0 / weightp=2 / keyint=240 / keyint_min=121 / scenecut=0 / intra_refresh=0 / rc_lookahead=240 / rc=crf / mbtree=1 / crf=19.0 / qcomp=0.50 / qpmin=6 / qpmax=51 / qpstep=4 / vbv_maxrate=20000 / vbv_bufsize=25000 / crf_max=0.0 / nal_hrd=vbr / filler=0 / ip_ratio=1.40 / aq=1:0.80
    Default                     : Yes
    Forced                      : Yes

    Audio #1
    ID                          : 2
    Format                      : AC-3
    Format/Info                 : Audio Coding 3
    Commercial name             : Dolby Digital
    Codec ID                    : A_AC3
    Duration                    : 2 h 23 min
    Bit rate mode               : Constant
    Bit rate                    : 640 kb/s
    Channel(s)                  : 6 channels
    Channel layout              : L R C LFE Ls Rs
    Sampling rate               : 48.0 kHz
    Frame rate                  : 31.250 FPS (1536 SPF)
    Compression mode            : Lossy
    Stream size                 : 659 MiB (14%)
    Title                       : Español Latino AC3 [CinemaniaHDD]
    Language                    : Spanish
    Service kind                : Complete Main
    Default                     : Yes
    Forced                      : Yes

    Audio #2
    ID                          : 3
    Format                      : E-AC-3
    Format/Info                 : Enhanced AC-3
    Commercial name             : Dolby Digital Plus
    Codec ID                    : A_EAC3
    Duration                    : 2 h 23 min
    Bit rate mode               : Constant
    Bit rate                    : 640 kb/s
    Channel(s)                  : 6 channels
    Channel layout              : L R C LFE Ls Rs
    Sampling rate               : 48.0 kHz
    Frame rate                  : 31.250 FPS (1536 SPF)
    Compression mode            : Lossy
    Stream size                 : 659 MiB (14%)
    Title                       : Español Latino EAC3 [CinemaniaHDD]
    Language                    : Spanish
    Service kind                : Complete Main
    Default                     : No
    Forced                      : No

    Audio #3
    ID                          : 4
    Format                      : E-AC-3
    Format/Info                 : Enhanced AC-3
    Commercial name             : Dolby Digital Plus
    Codec ID                    : A_EAC3
    Duration                    : 2 h 23 min
    Bit rate mode               : Constant
    Bit rate                    : 640 kb/s
    Channel(s)                  : 6 channels
    Channel layout              : L R C LFE Ls Rs
    Sampling rate               : 48.0 kHz
    Frame rate                  : 31.250 FPS (1536 SPF)
    Compression mode            : Lossy
    Stream size                 : 659 MiB (14%)
    Title                       : Japones [CinemaniaHDD]
    Language                    : Japanese
    Service kind                : Complete Main
    Default                     : No
    Forced                      : No

    Text #1
    ID                          : 5
    Format                      : UTF-8
    Codec ID                    : S_TEXT/UTF8
    Codec ID/Info               : UTF-8 Plain Text
    Duration                    : 2 h 21 min
    Bit rate                    : 0 b/s
    Count of elements           : 3
    Stream size                 : 54.0 Bytes (0%)
    Title                       : Forzados-SRT [CinemaniaHDD]
    Language                    : Spanish
    Default                     : Yes
    Forced                      : Yes

    Text #2
    ID                          : 6
    Format                      : UTF-8
    Codec ID                    : S_TEXT/UTF8
    Codec ID/Info               : UTF-8 Plain Text
    Duration                    : 2 h 16 min
    Bit rate                    : 38 b/s
    Count of elements           : 1373
    Stream size                 : 38.4 KiB (0%)
    Title                       : Español-SRT [CinemaniaHDD]
    Language                    : Spanish
    Default                     : No
    Forced                      : No

  • Peso: 4.48 GiB

Sinopsis

Descargar Fullmetal Alchemist: La Alquimia Final (2022) NF WEB-DL 1080p Latino. Segunda secuela de la película live-action «Fullmetal Alchemist», centrada en el arco final del manga original.

Español Latino EAC3 & AC3 5.1 NF – Japones EAC3 5.1 NF

Ficha técnica

Video trailer de la película

Enlaces de descarga

Rip de Bluray

Descargar Fullmetal Alchemist: La Alquimia Final (2022) NF WEB-DL 1080p Latino




Aportes de DPeliculasHDmega la pass es:dpeliculashdmega.org Aportes de CinemaniaHD la pass es:cinemaniahdd.com
Guardado en : Acción , Aventura , Fantasía , Netflix

Películas relacionadas

  • Scrooge: Cuento De Navidad (2022) NF WEB-DL 1080p Latino

    Scrooge: Cuento De Navidad (2022) NF WEB-DL 1080p Latino

    2022
    Scrooge: Cuento De Navidad (2022) NF WEB-DL 1080p Latino

    1h 37m 2022

    Descargar Scrooge Cuento De Navidad (2022) NF WEB-DL 1080p Latino. En la víspera de Navidad, el egoísta...

    Director: Stephen Donnelly

    Género: Animación

    Actores: Trevor Dion Nicholas

  • La Guerra Del Futuro (2022) NF WEB-DL 1080p Latino

    La Guerra Del Futuro (2022) NF WEB-DL 1080p Latino

    2022
    La Guerra Del Futuro (2022) NF WEB-DL 1080p Latino

    1h 41m 2022

    Descargar La Guerra Del Futuro (2022) NF WEB-DL 1080p Latino. Tras la caída de un meteorito que alberga...

    Director: Ng Yuen-fai

    Género: Acción

    Actores: Tse Kwan-Ho

  • Super… ¿quién? (2021) HD 1080p Latino

    Super… ¿quién? (2021) HD 1080p Latino

    2022
    Super… ¿quién? (2021) HD 1080p Latino

    1h 22m 2022

    Descargar Super... ¿quién? (2021) HD 1080p Latino. Cedric (Philippe Lacheau) intenta ganarse la vida...

    Director: Philippe Lacheau

    Género: Acción

    Actores: Yves Yan

descargar Fullmetal Alchemist: La Alquimia Final (2022) NF WEB-DL 1080p Latino WEBDL 1080p gratis, Fullmetal Alchemist: La Alquimia Final (2022) NF WEB-DL 1080p Latino WEBDL mega 1 link, Fullmetal Alchemist: La Alquimia Final (2022) NF WEB-DL 1080p Latino WEBDL pelicula completa, descargar Fullmetal Alchemist: La Alquimia Final (2022) NF WEB-DL 1080p Latino WEBDL gratis en mega.

Fullmetal Alchemist: La Alquimia Final (2022) NF WEB-DL 1080p Latino pelicula full hd, Fullmetal Alchemist: La Alquimia Final (2022) NF WEB-DL 1080p Latino mega latino, Fullmetal Alchemist: La Alquimia Final (2022) NF WEB-DL 1080p Latino 4k latino, Fullmetal Alchemist: La Alquimia Final (2022) NF WEB-DL 1080p Latino pelicula completa, Fullmetal Alchemist: La Alquimia Final (2022) NF WEB-DL 1080p Latino descargar gratis, descargar Fullmetal Alchemist: La Alquimia Final (2022) NF WEB-DL 1080p Latino pelicula latino, Fullmetal Alchemist: La Alquimia Final (2022) NF WEB-DL 1080p Latino 1 link mega, Fullmetal Alchemist: La Alquimia Final (2022) NF WEB-DL 1080p Latino 1 link google drive, Fullmetal Alchemist: La Alquimia Final (2022) NF WEB-DL 1080p Latino hd 1080p latino.
Comentarios 0