×

¿Problemas para descargar con Mozilla, EDGE? Deshabilita la opción "Abrir vinculos en una pestaña nueva" tal como lo muestra ésta imagen.

La abeja Maya y el huevo dorado (2021) WEB-DL 1080p Latino – CMHDD

375 vistas

Información de La abeja Maya y el huevo dorado (2021) WEB-DL 1080p Latino – CMHDD

Datos de la película

  • Calidad:
  • Audio: Se especifica abajo de la Sinopsis
  • Subtitulos: No Disponible en Subdivx
  • Resolución: 1920x1032p
  • Formato:
  • Codec: H.264
  • Encoder: CinemaniaHDD
  • Mediainfo: Clic para Mostrar Datos Ver
  • Format                      : Matroska
    Format version              : Version 4
    File size                   : 3.47 GiB
    Duration                    : 1 h 28 min
    Overall bit rate            : 5 649 kb/s
    Movie name                  : La abeja Maya y el huevo dorado (2021) WEB-DL 1080p Latino - CMHDD
    Encoded date                : UTC 2021-05-06 00:11:44
    Writing application         : mkvmerge v56.1.0 ('My Friend') 64-bit
    Writing library             : libebml v1.4.2 + libmatroska v1.6.4

    Video
    ID                          : 1
    Format                      : AVC
    Format/Info                 : Advanced Video Codec
    Format profile              : High@L4
    Format settings             : CABAC / 4 Ref Frames
    Format settings, CABAC      : Yes
    Format settings, Reference  : 4 frames
    Codec ID                    : V_MPEG4/ISO/AVC
    Duration                    : 1 h 28 min
    Bit rate                    : 5 009 kb/s
    Width                       : 1 916 pixels
    Height                      : 1 032 pixels
    Display aspect ratio        : 1.85:1
    Frame rate mode             : Constant
    Frame rate                  : 24.000 FPS
    Color space                 : YUV
    Chroma subsampling          : 4:2:0
    Bit depth                   : 8 bits
    Scan type                   : Progressive
    Bits/(Pixel*Frame)          : 0.106
    Stream size                 : 3.08 GiB (89%)
    Language                    : English
    Default                     : Yes
    Forced                      : No
    Color range                 : Limited
    Color primaries             : BT.709
    Transfer characteristics    : BT.709
    Matrix coefficients         : BT.709

    Audio #1
    ID                          : 2
    Format                      : AAC LC
    Format/Info                 : Advanced Audio Codec Low Complexity
    Codec ID                    : A_AAC-2
    Duration                    : 1 h 28 min
    Bit rate                    : 126 kb/s
    Channel(s)                  : 2 channels
    Channel layout              : L R
    Sampling rate               : 48.0 kHz
    Frame rate                  : 46.875 FPS (1024 SPF)
    Compression mode            : Lossy
    Delay relative to video     : -42 ms
    Stream size                 : 79.4 MiB (2%)
    Language                    : Spanish
    Default                     : Yes
    Forced                      : No

    Audio #2
    ID                          : 3
    Format                      : AAC LC
    Format/Info                 : Advanced Audio Codec Low Complexity
    Codec ID                    : A_AAC-2
    Duration                    : 1 h 28 min
    Bit rate                    : 127 kb/s
    Channel(s)                  : 2 channels
    Channel layout              : L R
    Sampling rate               : 48.0 kHz
    Frame rate                  : 46.875 FPS (1024 SPF)
    Compression mode            : Lossy
    Delay relative to video     : -42 ms
    Stream size                 : 79.8 MiB (2%)
    Language                    : English
    Default                     : No
    Forced                      : No

    Audio #3
    ID                          : 4
    Format                      : AC-3
    Format/Info                 : Audio Coding 3
    Commercial name             : Dolby Digital
    Codec ID                    : A_AC3
    Duration                    : 1 h 28 min
    Bit rate mode               : Constant
    Bit rate                    : 384 kb/s
    Channel(s)                  : 6 channels
    Channel layout              : L R C LFE Ls Rs
    Sampling rate               : 48.0 kHz
    Frame rate                  : 31.250 FPS (1536 SPF)
    Compression mode            : Lossy
    Delay relative to video     : -42 ms
    Stream size                 : 242 MiB (7%)
    Language                    : English
    Service kind                : Complete Main
    Default                     : No
    Forced                      : No

    Menu
    00:00:00.000                : 1
    00:17:51.000                : 2
    00:41:05.000                : 3
    01:01:52.000                : 4
    01:21:34.000                : 5

  • Peso: 3.47 GiB

Sinopsis

La abeja Maya y su mejor amigo, Willi, rescatan a una princesa hormiga y se ven envueltos en una batalla épica entre insectos que les llevará a mundos desconocidos y pondrá a prueba su amistad.

 

Latino: AAC 2.0  –  Ingles: AC3 5.1

Ficha técnica

Video trailer de la película

Enlaces de descarga

Rip de Bluray

Descargar La abeja Maya y el huevo dorado (2021) WEB-DL 1080p Latino – CMHDD




Aportes de DPeliculasHDmega la pass es:dpeliculashdmega.org Aportes de CinemaniaHD la pass es:cinemaniahdd.com
Guardado en : Animación , Aventura , Familia

Películas relacionadas

descargar La abeja Maya y el huevo dorado (2021) WEB-DL 1080p Latino – CMHDD 1080p gratis, La abeja Maya y el huevo dorado (2021) WEB-DL 1080p Latino – CMHDD mega 1 link, La abeja Maya y el huevo dorado (2021) WEB-DL 1080p Latino – CMHDD pelicula completa, descargar La abeja Maya y el huevo dorado (2021) WEB-DL 1080p Latino – CMHDD gratis en mega.

La abeja Maya y el huevo dorado (2021) WEB-DL 1080p Latino – CMHDD pelicula full hd, La abeja Maya y el huevo dorado (2021) WEB-DL 1080p Latino – CMHDD mega latino, La abeja Maya y el huevo dorado (2021) WEB-DL 1080p Latino – CMHDD 4k latino, La abeja Maya y el huevo dorado (2021) WEB-DL 1080p Latino – CMHDD pelicula completa, La abeja Maya y el huevo dorado (2021) WEB-DL 1080p Latino – CMHDD descargar gratis, descargar La abeja Maya y el huevo dorado (2021) WEB-DL 1080p Latino – CMHDD pelicula latino, La abeja Maya y el huevo dorado (2021) WEB-DL 1080p Latino – CMHDD 1 link mega, La abeja Maya y el huevo dorado (2021) WEB-DL 1080p Latino – CMHDD 1 link google drive, La abeja Maya y el huevo dorado (2021) WEB-DL 1080p Latino – CMHDD hd 1080p latino.
Comentarios 0