×

¿Problemas para descargar con Mozilla, EDGE? Deshabilita la opción "Abrir vinculos en una pestaña nueva" tal como lo muestra ésta imagen.

L-Pop (2023) Temporada 1 WEB-DL 1080p Latino

122 vistas

Información de L-Pop (2023) Temporada 1 WEB-DL 1080p Latino

Datos de la película

  • Calidad: WEBDL
  • Audio: Se especifica abajo de la Sinopsis
  • Subtitulos: Español Latino SRT- FORZADOS SRT
  • Resolución: 1920x1080p
  • Formato: MKV
  • Codec: H.264
  • Encoder: Melkor
  • Mediainfo: Clic para Mostrar Datos Ver
  • L-Pop S01E01 (2023) Web-DL 1080p Latino.mkv
    Format                      : Matroska
    Format version              : Version 4
    File size                   : 1.54 GiB
    Duration                    : 30 min 16 s
    Overall bit rate mode       : Variable
    Overall bit rate            : 7 275 kb/s
    Movie name                  : L-Pop S01E01 CinemaniaHDD.Net
    Encoded date                : UTC 2023-10-05 06:10:32
    Writing application         : mkvmerge v56.1.0 ('My Friend') 64-bit
    Writing library             : libebml v1.4.2 + libmatroska v1.6.4
    Attachments                 : CINEMANIAHD.png
    Site                        : CinemaniaHDD.Net
    Uploader                    : Melkor

    Video
    ID                          : 1
    Format                      : AVC
    Format/Info                 : Advanced Video Codec
    Format profile              : High@L4
    Format settings             : CABAC / 4 Ref Frames
    Format settings, CABAC      : Yes
    Format settings, Reference  : 4 frames
    Codec ID                    : V_MPEG4/ISO/AVC
    Duration                    : 30 min 16 s
    Bit rate mode               : Variable
    Bit rate                    : 7 017 kb/s
    Maximum bit rate            : 12.7 Mb/s
    Width                       : 1 920 pixels
    Height                      : 1 080 pixels
    Display aspect ratio        : 16:9
    Frame rate mode             : Constant
    Frame rate                  : 23.976 (24000/1001) FPS
    Color space                 : YUV
    Chroma subsampling          : 4:2:0
    Bit depth                   : 8 bits
    Scan type                   : Progressive
    Bits/(Pixel*Frame)          : 0.141
    Stream size                 : 1.48 GiB (96%)
    Title                       : WEB HD1080p [CinemaniaHDD]
    Default                     : Yes
    Forced                      : Yes
    Color range                 : Limited
    Color primaries             : BT.709
    Transfer characteristics    : BT.709
    Matrix coefficients         : BT.709

    Audio
    ID                          : 2
    Format                      : E-AC-3
    Format/Info                 : Enhanced AC-3
    Commercial name             : Dolby Digital Plus
    Codec ID                    : A_EAC3
    Duration                    : 30 min 16 s
    Bit rate mode               : Constant
    Bit rate                    : 256 kb/s
    Channel(s)                  : 6 channels
    Channel layout              : L R C LFE Ls Rs
    Sampling rate               : 48.0 kHz
    Frame rate                  : 31.250 FPS (1536 SPF)
    Compression mode            : Lossy
    Stream size                 : 55.4 MiB (4%)
    Title                       : Español Latino [CinemaniaHDD]
    Language                    : Spanish
    Service kind                : Complete Main
    Default                     : Yes
    Forced                      : Yes

    Text #1
    ID                          : 3
    Format                      : UTF-8
    Codec ID                    : S_TEXT/UTF8
    Codec ID/Info               : UTF-8 Plain Text
    Duration                    : 5 s 0 ms
    Bit rate                    : 25 b/s
    Count of elements           : 1
    Stream size                 : 16.0 Bytes (0%)
    Title                       : Forzados-SRT [CinemaniaHDD]
    Language                    : Spanish
    Default                     : Yes
    Forced                      : Yes

    Text #2
    ID                          : 4
    Format                      : UTF-8
    Codec ID                    : S_TEXT/UTF8
    Codec ID/Info               : UTF-8 Plain Text
    Duration                    : 30 min 2 s
    Bit rate                    : 105 b/s
    Count of elements           : 548
    Stream size                 : 23.2 KiB (0%)
    Title                       : Español-SRT [CinemaniaHDD]
    Language                    : Spanish
    Default                     : No
    Forced                      : No

  • Peso: 1.5 GiB Aprox C/U -- 9.75 GiB -- 6 Chapters

Sinopsis

Descargar L-Pop (2023) Temporada 1 WEB-DL 1080p Latino. Una joven de América Latina tiene un sueño muy específico: poder conocer Corea del Sur, la tierra que vio conocer a sus idols de K-pop. Aunque alcanzar este meta no será nada sencillo, ella hará lo que esté en sus manos para poder hacerlo realidad como siempre ha querido desde que se hizo fan de esta música.

Español Latino EAC3 5.1 Web

Ficha técnica

  • Titulo original: L-Pop
  • Fecha de lanzamiento: 27-09-2023 (MX)
  • Género: Comedia, Drama, Series

Video trailer de la película

Enlaces de descarga

Rip de Bluray

Descargar L-Pop (2023) Temporada 1 WEB-DL 1080p Latino




Aportes de DPeliculasHDmega la pass es:dpeliculashdmega.org Aportes de CinemaniaHD la pass es:cinemaniahdd.com Aportes recientes:cinemaniahdd.net
Guardado en : Comedia , Drama , Series

Películas relacionadas

descargar L-Pop (2023) Temporada 1 WEB-DL 1080p Latino WEBDL 1080p gratis, L-Pop (2023) Temporada 1 WEB-DL 1080p Latino WEBDL mega 1 link, L-Pop (2023) Temporada 1 WEB-DL 1080p Latino WEBDL serie completa, descargar L-Pop (2023) Temporada 1 WEB-DL 1080p Latino WEBDL gratis en mega.

L-Pop (2023) Temporada 1 WEB-DL 1080p Latino pelicula full hd, L-Pop (2023) Temporada 1 WEB-DL 1080p Latino mega latino, L-Pop (2023) Temporada 1 WEB-DL 1080p Latino 4k latino, L-Pop (2023) Temporada 1 WEB-DL 1080p Latino pelicula completa, L-Pop (2023) Temporada 1 WEB-DL 1080p Latino descargar gratis, descargar L-Pop (2023) Temporada 1 WEB-DL 1080p Latino pelicula latino, L-Pop (2023) Temporada 1 WEB-DL 1080p Latino 1 link mega, L-Pop (2023) Temporada 1 WEB-DL 1080p Latino 1 link google drive, L-Pop (2023) Temporada 1 WEB-DL 1080p Latino hd 1080p latino.
Comentarios 0