×

¿Problemas para descargar con Mozilla, EDGE? Deshabilita la opción "Abrir vinculos en una pestaña nueva" tal como lo muestra ésta imagen.

KV1: Almas de Hierro (2018) Full HD 1080p Latino

2.938 vistas

Información de KV1: Almas de Hierro (2018) Full HD 1080p Latino

Datos de la película

  • Calidad: Full 1080p
  • Audio: Se especifica abajo de la Sinopsis
  • Subtitulos: Español Latino SRT- FORZADOS SRT
  • Resolución: 1920x1080p
  • Formato: MKV
  • Codec: H.264
  • Encoder: CinefiloCool
  • Mediainfo: Clic para Mostrar Datos Ver
  • KV1 - Almas de Hierro (2018) Full HD 1080p Latino-CMHDD.mkv
    Format                      : Matroska
    Format version              : Version 4
    File size                   : 6.76 GiB
    Duration                    : 1 h 29 min
    Overall bit rate            : 10.8 Mb/s
    Movie name                  : cinemaniaHDD.Net
    Encoded date                : UTC 2020-02-07 14:59:26
    Writing application         : mkvmerge v42.0.0 ('Overtime') 64-bit
    Writing library             : libebml v1.3.10 + libmatroska v1.5.2
    Attachments                 : CINEMANIAHD.png

    Video
    ID                          : 1
    Format                      : AVC
    Format/Info                 : Advanced Video Codec
    Format profile              : High@L4.1
    Format settings             : CABAC / 4 Ref Frames
    Format settings, CABAC      : Yes
    Format settings, ReFrames   : 4 frames
    Codec ID                    : V_MPEG4/ISO/AVC
    Duration                    : 1 h 29 min
    Bit rate                    : 9 025 kb/s
    Width                       : 1 920 pixels
    Height                      : 1 080 pixels
    Display aspect ratio        : 16:9
    Frame rate mode             : Constant
    Frame rate                  : 24.000 FPS
    Color space                 : YUV
    Chroma subsampling          : 4:2:0
    Bit depth                   : 8 bits
    Scan type                   : Progressive
    Bits/(Pixel*Frame)          : 0.181
    Stream size                 : 5.65 GiB (84%)
    Title                       : Full HD1080p [Bluray]
    Writing library             : x264 core 157 r2935 545de2f
    Encoding settings           : cabac=1 / ref=4 / deblock=1:-1:-1 / analyse=0x3:0x133 / me=tesa / subme=11 / psy=1 / psy_rd=1.00:0.15 / mixed_ref=1 / me_range=24 / chroma_me=1 / trellis=2 / 8x8dct=1 / cqm=0 / deadzone=21,11 / fast_pskip=0 / chroma_qp_offset=-3 / threads=34 / lookahead_threads=8 / sliced_threads=0 / nr=0 / decimate=1 / interlaced=0 / bluray_compat=0 / constrained_intra=0 / bframes=16 / b_pyramid=2 / b_adapt=2 / b_bias=0 / direct=3 / weightb=1 / open_gop=0 / weightp=2 / keyint=240 / keyint_min=24 / scenecut=40 / intra_refresh=0 / rc_lookahead=60 / rc=crf / mbtree=1 / crf=20.0 / qcomp=0.60 / qpmin=0 / qpmax=69 / qpstep=4 / vbv_maxrate=62500 / vbv_bufsize=78125 / crf_max=0.0 / nal_hrd=none / filler=0 / ip_ratio=1.40 / aq=1:1.00
    Default                     : Yes
    Forced                      : Yes
    Color range                 : Limited
    Color primaries             : BT.709
    Transfer characteristics    : BT.709
    Matrix coefficients         : BT.709

    Audio #1
    ID                          : 2
    Format                      : AC-3
    Format/Info                 : Audio Coding 3
    Commercial name             : Dolby Digital
    Codec ID                    : A_AC3
    Duration                    : 1 h 29 min
    Bit rate mode               : Constant
    Bit rate                    : 256 kb/s
    Channel(s)                  : 2 channels
    Channel layout              : L R
    Sampling rate               : 48.0 kHz
    Frame rate                  : 31.250 FPS (1536 SPF)
    Bit depth                   : 16 bits
    Compression mode            : Lossy
    Stream size                 : 164 MiB (2%)
    Title                       : AC3_2.0_Web_Esp
    Language                    : Spanish
    Service kind                : Complete Main
    Default                     : Yes
    Forced                      : Yes

    Audio #2
    ID                          : 3
    Format                      : DTS
    Format/Info                 : Digital Theater Systems
    Codec ID                    : A_DTS
    Duration                    : 1 h 29 min
    Bit rate mode               : Constant
    Bit rate                    : 1 509 kb/s
    Channel(s)                  : 6 channels
    Channel layout              : C L R Ls Rs LFE
    Sampling rate               : 48.0 kHz
    Frame rate                  : 93.750 FPS (512 SPF)
    Bit depth                   : 24 bits
    Compression mode            : Lossy
    Stream size                 : 967 MiB (14%)
    Title                       : DTS_5.1_Bluray_Rus
    Language                    : Russian
    Default                     : No
    Forced                      : No

    Text #1
    ID                          : 4
    Format                      : UTF-8
    Codec ID                    : S_TEXT/UTF8
    Codec ID/Info               : UTF-8 Plain Text
    Duration                    : 1 h 25 min
    Bit rate                    : 1 b/s
    Count of elements           : 17
    Stream size                 : 812 Bytes (0%)
    Title                       : Sub_Forzados
    Language                    : Spanish
    Default                     : Yes
    Forced                      : Yes

    Text #2
    ID                          : 5
    Format                      : UTF-8
    Codec ID                    : S_TEXT/UTF8
    Codec ID/Info               : UTF-8 Plain Text
    Duration                    : 1 h 25 min
    Bit rate                    : 51 b/s
    Count of elements           : 994
    Stream size                 : 31.9 KiB (0%)
    Title                       : Sub_Esp
    Language                    : Spanish
    Default                     : No
    Forced                      : No

    Menu
    00:00:00.000                : :Kapitel 01
    00:06:55.000                : :Kapitel 02
    00:12:34.833                : :Kapitel 03
    00:18:15.542                : :Kapitel 04
    00:23:11.208                : :Kapitel 05
    00:30:32.542                : :Kapitel 06
    00:37:27.083                : :Kapitel 07
    00:43:47.958                : :Kapitel 08
    00:49:43.625                : :Kapitel 09
    00:57:52.542                : :Kapitel 10
    01:01:58.750                : :Kapitel 11
    01:07:38.625                : :Kapitel 12
    01:12:59.875                : :Kapitel 13
    01:18:22.958                : :Kapitel 14
    01:23:34.625                : :Kapitel 15
    01:25:35.292                : :Kapitel 16

  • Peso: 6.76 GiB

Sinopsis

Descargar KV1: Almas de Hierro (2018) Full HD 1080p Latino. La película inspirada en eventos reales cuenta la historia de la heroica hazaña del equipo del tanque KV-1. Teniendo una pelea perdida, la tripulación de Semyon Konovalov destruyó 16 tanques enemigos, 2 vehículos blindados y 8 vehículos con personal enemigo cerca de la granja Nizhnemityakin en el distrito de Tarasovskoye de la región de Rostov. Esta es la historia de los héroes del cartel, pero de tipos rotos, alegres y muy diversos que solo querían vivir. En el momento decisivo, lograron hacer lo único correcto y realizaron el hecho digno de la leyenda.

Audio Español Latino AC3 2.0 Itunes – Ruso DTS 5.1 Bluray

Ficha técnica

Video trailer de la película

Enlaces de descarga

Rip de Bluray

Descargar KV1: Almas de Hierro (2018) Full HD 1080p Latino




Aportes de DPeliculasHDmega la pass es:dpeliculashdmega.org Aportes de CinemaniaHD la pass es:cinemaniahdd.com

Películas relacionadas

  • Wire Room (2022) PLACEBO Full HD 1080p Latino

    Wire Room (2022) PLACEBO Full HD 1080p Latino

    2022
    Wire Room (2022) PLACEBO Full HD 1080p Latino

    1h 37m 2022

    Descargar Wire Room (2022) PLACEBO Full HD 1080p Latino. Mientras está de servicio en la sala de cables,...

    Director: Matt Eskandari

    Género: Acción

    Actores: Texas Battle

  • Alarido (2022) PLACEBO Full HD 1080p Latino

    Alarido (2022) PLACEBO Full HD 1080p Latino

    2022
    Alarido (2022) PLACEBO Full HD 1080p Latino

    1h 29m 2022

    Descargar Alarido (2022) PLACEBO Full HD 1080p Latino. Una joven madre soltera es cautiva junto con sus...

    Director: D.J. Caruso

    Género: FULL 1080p Plateadas

    Actores: Vincent Gallo

  • After: Amor infinito (2022) AMZN WEB-DL 1080p Latino

    After: Amor infinito (2022) AMZN WEB-DL 1080p Latino

    2022
    After: Amor infinito (2022) AMZN WEB-DL 1080p Latino

    1h 35m 2022

    Descargar After: Amor infinito (2022) AMZN WEB-DL 1080p Latino. El amor de Tessa y Hardin nunca ha sido...

    Director: Castille Landon

    Género: Drama

    Actores: Velizar Nikolaev Biney

  • Blonde (2022) NF WEB-DL 1080p Latino

    Blonde (2022) NF WEB-DL 1080p Latino

    2022
    Blonde (2022) NF WEB-DL 1080p Latino

    2h 46m 2022

    Descargar Blonde (2022) NF WEB-DL 1080p Latino. Basada en el bestseller de la cinco veces finalista al...

    Director: Kristin Bree Calabrese

    Género: Drama

    Actores: Xavier Samuel

descargar KV1: Almas de Hierro (2018) Full HD 1080p Latino Full 1080p 1080p gratis, KV1: Almas de Hierro (2018) Full HD 1080p Latino Full 1080p mega 1 link, KV1: Almas de Hierro (2018) Full HD 1080p Latino Full 1080p pelicula completa, descargar KV1: Almas de Hierro (2018) Full HD 1080p Latino Full 1080p gratis en mega.

KV1: Almas de Hierro (2018) Full HD 1080p Latino pelicula full hd, KV1: Almas de Hierro (2018) Full HD 1080p Latino mega latino, KV1: Almas de Hierro (2018) Full HD 1080p Latino 4k latino, KV1: Almas de Hierro (2018) Full HD 1080p Latino pelicula completa, KV1: Almas de Hierro (2018) Full HD 1080p Latino descargar gratis, descargar KV1: Almas de Hierro (2018) Full HD 1080p Latino pelicula latino, KV1: Almas de Hierro (2018) Full HD 1080p Latino 1 link mega, KV1: Almas de Hierro (2018) Full HD 1080p Latino 1 link google drive, KV1: Almas de Hierro (2018) Full HD 1080p Latino hd 1080p latino.
Comentarios 0