×

¿Problemas para descargar con Mozilla, EDGE? Deshabilita la opción "Abrir vinculos en una pestaña nueva" tal como lo muestra ésta imagen.

Atrapados: Una Historia Verdadera (2018) REMUX 1080p Latino

1.946 vistas

Información de Atrapados: Una Historia Verdadera (2018) REMUX 1080p Latino

Datos de la película

  • Calidad: Full 1080p
  • Audio: Se especifica abajo de la Sinopsis
  • Subtitulos: Español Latino SRT- FORZADOS SRT
  • Resolución: 1920x1080p
  • Formato: MKV
  • Codec: H.264
  • Encoder: CinemaniaHD
  • Mediainfo: Clic para Mostrar Datos Ver
  • Atrapados (2018) REMUX 1080p Latino-CMHDD.mkv
    Format                      : Matroska
    Format version              : Version 4
    File size                   : 26.2 GiB
    Duration                    : 1 h 57 min
    Overall bit rate mode       : Variable
    Overall bit rate            : 31.9 Mb/s
    Movie name                  : CinemaniaHDD.Net
    Encoded date                : UTC 2020-01-17 05:16:34
    Writing application         : mkvmerge v38.0.0 ('The Silent Type') 64-bit
    Writing library             : libebml v1.3.9 + libmatroska v1.5.2
    Attachments                 : CINEMANIAHD.png

    Video
    ID                          : 1
    Format                      : AVC
    Format/Info                 : Advanced Video Codec
    Format profile              : High@L4.1
    Format settings             : CABAC / 4 Ref Frames
    Format settings, CABAC      : Yes
    Format settings, ReFrames   : 4 frames
    Format settings, GOP        : M=4, N=24
    Codec ID                    : V_MPEG4/ISO/AVC
    Duration                    : 1 h 57 min
    Bit rate mode               : Variable
    Bit rate                    : 27.0 Mb/s
    Maximum bit rate            : 31.0 Mb/s
    Width                       : 1 920 pixels
    Height                      : 1 080 pixels
    Display aspect ratio        : 16:9
    Frame rate mode             : Constant
    Frame rate                  : 24.000 FPS
    Color space                 : YUV
    Chroma subsampling          : 4:2:0
    Bit depth                   : 8 bits
    Scan type                   : Progressive
    Bits/(Pixel*Frame)          : 0.543
    Stream size                 : 22.2 GiB (85%)
    Title                       : Full HD1080p [REMUX]
    Default                     : Yes
    Forced                      : Yes
    Color range                 : Limited
    Color primaries             : BT.709
    Transfer characteristics    : BT.709
    Matrix coefficients         : BT.709

    Audio #1
    ID                          : 2
    Format                      : AC-3
    Format/Info                 : Audio Coding 3
    Commercial name             : Dolby Digital
    Codec ID                    : A_AC3
    Duration                    : 1 h 57 min
    Bit rate mode               : Constant
    Bit rate                    : 448 kb/s
    Channel(s)                  : 6 channels
    Channel layout              : L R C LFE Ls Rs
    Sampling rate               : 48.0 kHz
    Frame rate                  : 31.250 FPS (1536 SPF)
    Bit depth                   : 16 bits
    Compression mode            : Lossy
    Stream size                 : 377 MiB (1%)
    Title                       : AC3_5.1_DVD_Esp
    Language                    : Spanish
    Service kind                : Complete Main
    Default                     : Yes
    Forced                      : Yes

    Audio #2
    ID                          : 3
    Format                      : DTS XLL
    Format/Info                 : Digital Theater Systems
    Commercial name             : DTS-HD Master Audio
    Codec ID                    : A_DTS
    Duration                    : 1 h 57 min
    Bit rate mode               : Variable
    Bit rate                    : 4 488 kb/s
    Channel(s)                  : 8 channels
    Channel layout              : C L R LFE Lb Rb Lss Rss
    Sampling rate               : 48.0 kHz
    Frame rate                  : 93.750 FPS (512 SPF)
    Bit depth                   : 24 bits
    Compression mode            : Lossless
    Stream size                 : 3.69 GiB (14%)
    Title                       : DTS-HD_7.1_Bluray_Eng
    Language                    : English
    Default                     : No
    Forced                      : No

    Text #1
    ID                          : 4
    Format                      : UTF-8
    Codec ID                    : S_TEXT/UTF8
    Codec ID/Info               : UTF-8 Plain Text
    Duration                    : 1 h 49 min
    Bit rate                    : 0 b/s
    Count of elements           : 2
    Stream size                 : 112 Bytes (0%)
    Title                       : Sub_Forzados
    Language                    : Spanish
    Default                     : Yes
    Forced                      : Yes

    Text #2
    ID                          : 5
    Format                      : UTF-8
    Codec ID                    : S_TEXT/UTF8
    Codec ID/Info               : UTF-8 Plain Text
    Duration                    : 1 h 50 min
    Bit rate                    : 45 b/s
    Count of elements           : 1245
    Stream size                 : 36.4 KiB (0%)
    Title                       : Sub_Esp
    Language                    : Spanish
    Default                     : No
    Forced                      : No

    Text #3
    ID                          : 6
    Format                      : UTF-8
    Codec ID                    : S_TEXT/UTF8
    Codec ID/Info               : UTF-8 Plain Text
    Duration                    : 1 h 48 min
    Bit rate                    : 41 b/s
    Count of elements           : 1154
    Stream size                 : 32.7 KiB (0%)
    Title                       : Sub_Eng
    Language                    : English
    Default                     : No
    Forced                      : No

    Menu
    00:00:00.000                : en:Chapter 01
    00:10:35.000                : en:Chapter 02
    00:20:02.000                : en:Chapter 03
    00:31:43.000                : en:Chapter 04
    00:38:38.000                : en:Chapter 05
    00:48:32.000                : en:Chapter 06
    00:59:55.000                : en:Chapter 07
    01:08:57.000                : en:Chapter 08
    01:18:16.000                : en:Chapter 09
    01:28:53.000                : en:Chapter 10
    01:38:18.000                : en:Chapter 11
    01:47:32.000                : en:Chapter 12

  • Peso: 26.2 GiB

Sinopsis

Descargar Atrapados: Una Historia Verdadera (2018) REMUX 1080p Latino. Narra la tragedia del submarino nuclear ruso 2000 K-141 Kursk ocurrida en agosto del año 2000, y la negligencia gubernamental que le siguió. Mientras los marineros luchan por sobrevivir, sus familias luchan desesperadamente contra los obstáculos políticos y las ínfimas probabilidades de salvarles.

Audio:
Español
«Hibrido» Castellano-Latino AC3 5.1 DVD 
adaptado (Extendido)
Ingles DTS-HD 7.1 Bluray 😉
Creditos Audio Latino: CinemaniaHD (Thanks!!)

!!!Version exclusiva de cinemaniahdd.net!!! 😀 😉

Ficha técnica

Video trailer de la película

Enlaces de descarga

Rip de Bluray

Descargar Atrapados: Una Historia Verdadera (2018) REMUX 1080p Latino




Aportes de DPeliculasHDmega la pass es:dpeliculashdmega.org Aportes de CinemaniaHD la pass es:cinemaniahdd.com Aportes recientes:cinemaniahdd.net
Guardado en : Castellano , Drama , Historia , Remux

Películas relacionadas

descargar Atrapados: Una Historia Verdadera (2018) REMUX 1080p Latino Full 1080p 1080p gratis, Atrapados: Una Historia Verdadera (2018) REMUX 1080p Latino Full 1080p mega 1 link, Atrapados: Una Historia Verdadera (2018) REMUX 1080p Latino Full 1080p pelicula completa, descargar Atrapados: Una Historia Verdadera (2018) REMUX 1080p Latino Full 1080p gratis en mega.

Atrapados: Una Historia Verdadera (2018) REMUX 1080p Latino pelicula full hd, Atrapados: Una Historia Verdadera (2018) REMUX 1080p Latino mega latino, Atrapados: Una Historia Verdadera (2018) REMUX 1080p Latino 4k latino, Atrapados: Una Historia Verdadera (2018) REMUX 1080p Latino pelicula completa, Atrapados: Una Historia Verdadera (2018) REMUX 1080p Latino descargar gratis, descargar Atrapados: Una Historia Verdadera (2018) REMUX 1080p Latino pelicula latino, Atrapados: Una Historia Verdadera (2018) REMUX 1080p Latino 1 link mega, Atrapados: Una Historia Verdadera (2018) REMUX 1080p Latino 1 link google drive, Atrapados: Una Historia Verdadera (2018) REMUX 1080p Latino hd 1080p latino.
Comentarios 0