×

¿Problemas para descargar con Mozilla, EDGE? Deshabilita la opción "Abrir vinculos en una pestaña nueva" tal como lo muestra ésta imagen.

Atrapados: Una Historia Verdadera (2018) Full HD 1080p Latino

3.838 vistas

Información de Atrapados: Una Historia Verdadera (2018) Full HD 1080p Latino

Datos de la película

  • Calidad: Full 1080p
  • Audio: Se especifica abajo de la Sinopsis
  • Subtitulos: Español Latino SRT- FORZADOS SRT
  • Resolución: 1920x1080p
  • Formato: MKV
  • Codec: H.264
  • Encoder: CinemaniaHD
  • Mediainfo: Clic para Mostrar Datos Ver
  • Atrapados (2018) Full 1080p Latino-CMHDD.mkv
    Format                      : Matroska
    Format version              : Version 4
    File size                   : 4.93 GiB
    Duration                    : 1 h 57 min
    Overall bit rate            : 6 000 kb/s
    Movie name                  : CinemaniaHDD.Net
    Encoded date                : UTC 2020-01-17 05:06:09
    Writing application         : mkvmerge v38.0.0 ('The Silent Type') 64-bit
    Writing library             : libebml v1.3.9 + libmatroska v1.5.2
    Attachments                 : CINEMANIAHD.png

    Video
    ID                          : 1
    Format                      : AVC
    Format/Info                 : Advanced Video Codec
    Format profile              : High@L4.1
    Format settings             : CABAC / 4 Ref Frames
    Format settings, CABAC      : Yes
    Format settings, ReFrames   : 4 frames
    Codec ID                    : V_MPEG4/ISO/AVC
    Duration                    : 1 h 57 min
    Bit rate                    : 4 040 kb/s
    Width                       : 1 920 pixels
    Height                      : 1 080 pixels
    Display aspect ratio        : 16:9
    Frame rate mode             : Constant
    Frame rate                  : 24.000 FPS
    Color space                 : YUV
    Chroma subsampling          : 4:2:0
    Bit depth                   : 8 bits
    Scan type                   : Progressive
    Bits/(Pixel*Frame)          : 0.081
    Stream size                 : 3.32 GiB (67%)
    Title                       : Full HD1080p [Bluray]
    Writing library             : x264 core 157 r2935 545de2f
    Encoding settings           : cabac=1 / ref=4 / deblock=1:0:0 / analyse=0x3:0x133 / me=tesa / subme=11 / psy=1 / psy_rd=1.00:0.00 / mixed_ref=1 / me_range=24 / chroma_me=1 / trellis=2 / 8x8dct=1 / cqm=0 / deadzone=21,11 / fast_pskip=0 / chroma_qp_offset=-2 / threads=34 / lookahead_threads=8 / sliced_threads=0 / nr=0 / decimate=1 / interlaced=0 / bluray_compat=0 / constrained_intra=0 / bframes=16 / b_pyramid=2 / b_adapt=2 / b_bias=0 / direct=3 / weightb=1 / open_gop=0 / weightp=2 / keyint=240 / keyint_min=24 / scenecut=40 / intra_refresh=0 / rc_lookahead=60 / rc=crf / mbtree=1 / crf=19.0 / qcomp=0.60 / qpmin=0 / qpmax=69 / qpstep=4 / vbv_maxrate=62500 / vbv_bufsize=78125 / crf_max=0.0 / nal_hrd=none / filler=0 / ip_ratio=1.40 / aq=1:1.00
    Default                     : Yes
    Forced                      : Yes
    Color range                 : Limited
    Color primaries             : BT.709
    Transfer characteristics    : BT.709
    Matrix coefficients         : BT.709

    Audio #1
    ID                          : 2
    Format                      : AC-3
    Format/Info                 : Audio Coding 3
    Commercial name             : Dolby Digital
    Codec ID                    : A_AC3
    Duration                    : 1 h 57 min
    Bit rate mode               : Constant
    Bit rate                    : 448 kb/s
    Channel(s)                  : 6 channels
    Channel layout              : L R C LFE Ls Rs
    Sampling rate               : 48.0 kHz
    Frame rate                  : 31.250 FPS (1536 SPF)
    Bit depth                   : 16 bits
    Compression mode            : Lossy
    Stream size                 : 377 MiB (7%)
    Title                       : AC3_5.1_DVD_Esp
    Language                    : Spanish
    Service kind                : Complete Main
    Default                     : Yes
    Forced                      : Yes

    Audio #2
    ID                          : 3
    Format                      : DTS
    Format/Info                 : Digital Theater Systems
    Codec ID                    : A_DTS
    Duration                    : 1 h 57 min
    Bit rate mode               : Constant
    Bit rate                    : 1 509 kb/s
    Channel(s)                  : 6 channels
    Channel layout              : C L R Ls Rs LFE
    Sampling rate               : 48.0 kHz
    Frame rate                  : 93.750 FPS (512 SPF)
    Bit depth                   : 24 bits
    Compression mode            : Lossy
    Stream size                 : 1.24 GiB (25%)
    Title                       : DTS_5.1_Bluray_Eng
    Language                    : English
    Default                     : No
    Forced                      : No

    Text #1
    ID                          : 4
    Format                      : UTF-8
    Codec ID                    : S_TEXT/UTF8
    Codec ID/Info               : UTF-8 Plain Text
    Duration                    : 1 h 49 min
    Bit rate                    : 0 b/s
    Count of elements           : 2
    Stream size                 : 112 Bytes (0%)
    Title                       : Sub_Forzados
    Language                    : Spanish
    Default                     : Yes
    Forced                      : Yes

    Text #2
    ID                          : 5
    Format                      : UTF-8
    Codec ID                    : S_TEXT/UTF8
    Codec ID/Info               : UTF-8 Plain Text
    Duration                    : 1 h 50 min
    Bit rate                    : 45 b/s
    Count of elements           : 1245
    Stream size                 : 36.4 KiB (0%)
    Title                       : Sub_Esp
    Language                    : Spanish
    Default                     : No
    Forced                      : No

    Text #3
    ID                          : 6
    Format                      : UTF-8
    Codec ID                    : S_TEXT/UTF8
    Codec ID/Info               : UTF-8 Plain Text
    Duration                    : 1 h 48 min
    Bit rate                    : 41 b/s
    Count of elements           : 1154
    Stream size                 : 32.7 KiB (0%)
    Title                       : Sub_Eng
    Language                    : English
    Default                     : No
    Forced                      : No

    Menu
    00:00:00.000                : :Chapter 1
    00:10:35.000                : :Chapter 2
    00:20:02.000                : :Chapter 3
    00:31:43.000                : :Chapter 4
    00:38:38.000                : :Chapter 5
    00:48:32.000                : :Chapter 6
    00:59:55.000                : :Chapter 7
    01:08:57.000                : :Chapter 8
    01:18:16.000                : :Chapter 9
    01:28:53.000                : :Chapter 10
    01:38:18.000                : :Chapter 11
    01:47:32.000                : :Chapter 12

  • Peso: 4.93 GiB

Sinopsis

Descargar Atrapados: Una Historia Verdadera (2018) Full HD 1080p Latino. Narra la tragedia del submarino nuclear ruso 2000 K-141 Kursk ocurrida en agosto del año 2000, y la negligencia gubernamental que le siguió. Mientras los marineros luchan por sobrevivir, sus familias luchan desesperadamente contra los obstáculos políticos y las ínfimas probabilidades de salvarles.

Audio:
Español
«Hibrido» Castellano-Latino AC3 5.1 DVD 
adaptado (Extendido)
Ingles DTS 5.1 Bluray 😉
Creditos Audio Latino: CinemaniaHD (Thanks!!)

!!!Version exclusiva de cinemaniahdd.net!!! 😀 😉

Ficha técnica

Video trailer de la película

Enlaces de descarga

Rip de Bluray

Descargar Atrapados: Una Historia Verdadera (2018) Full HD 1080p Latino




Aportes de DPeliculasHDmega la pass es:dpeliculashdmega.org Aportes de CinemaniaHD la pass es:cinemaniahdd.com

Películas relacionadas

  • Emily la criminal (2022) HD 1080p Latino

    Emily la criminal (2022) HD 1080p Latino

    2022
    Emily la criminal (2022) HD 1080p Latino

    1h 37m 2022

    Descargar Emily la criminal (2022) HD 1080p Latino. Emily, que tiene una deuda estudiantil y está excluida...

    Director: John Patton Ford

    Género: Crimen

    Actores: Theo Rossi

  • Emily la criminal (2022) REMUX 1080p Latino

    Emily la criminal (2022) REMUX 1080p Latino

    2022
    Emily la criminal (2022) REMUX 1080p Latino

    1h 37m 2022

    Descargar Emily la criminal (2022) REMUX 1080p Latino. Emily, que tiene una deuda estudiantil y está...

    Director: John Patton Ford

    Género: Crimen

    Actores: Theo Rossi

  • Território Hostil (2022) HD 1080p Latino

    Território Hostil (2022) HD 1080p Latino

    2022
    Território Hostil (2022) HD 1080p Latino

    1h 34m 2022

    Descargar Território Hostil (2022) HD 1080p Latino. En los Estados Unidos posteriores a la guerra civil,...

    Director: Brian Presley

    Género: Drama

    Actores: Natalie Whittle

descargar Atrapados: Una Historia Verdadera (2018) Full HD 1080p Latino Full 1080p 1080p gratis, Atrapados: Una Historia Verdadera (2018) Full HD 1080p Latino Full 1080p mega 1 link, Atrapados: Una Historia Verdadera (2018) Full HD 1080p Latino Full 1080p pelicula completa, descargar Atrapados: Una Historia Verdadera (2018) Full HD 1080p Latino Full 1080p gratis en mega.

Atrapados: Una Historia Verdadera (2018) Full HD 1080p Latino pelicula full hd, Atrapados: Una Historia Verdadera (2018) Full HD 1080p Latino mega latino, Atrapados: Una Historia Verdadera (2018) Full HD 1080p Latino 4k latino, Atrapados: Una Historia Verdadera (2018) Full HD 1080p Latino pelicula completa, Atrapados: Una Historia Verdadera (2018) Full HD 1080p Latino descargar gratis, descargar Atrapados: Una Historia Verdadera (2018) Full HD 1080p Latino pelicula latino, Atrapados: Una Historia Verdadera (2018) Full HD 1080p Latino 1 link mega, Atrapados: Una Historia Verdadera (2018) Full HD 1080p Latino 1 link google drive, Atrapados: Una Historia Verdadera (2018) Full HD 1080p Latino hd 1080p latino.
Comentarios 0