Kung Fu Yoga (2017) Full 1080p Latino

1.867 vistas
1 estrella2 estrellas3 estrellas4 estrellas5 estrellas (3 votos, promedio: 5,00 de 5)
Cargando…

Información de Kung Fu Yoga (2017) Full 1080p Latino

Datos de la película

  • Calidad: Full 1080p
  • Audio: Español Latino AC3 2.0 iTUNES - Ingles DTS 5.1 BURAY
  • Subtitulos: Español Latino PGS - Ingles PGS
  • Resolución: 1920x1080p
  • Formato: MKV
  • Codec: H.264
  • Encoder: chesse92
  • Mediainfo: Clic para Mostrar Datos Ver
  • Kung fu Yoga (2017) Full 1080p Latino.mkv
    Format                      : Matroska
    Format version              : Version 4 / Version 2
    File size                   : 7.06 GiB
    Duration                    : 1 h 47 min
    Overall bit rate            : 9 446 kb/s
    Movie name                  : CinemaniahDD.NET
    Encoded date                : UTC 2018-10-04 01:13:50 / UTC 2017-08-09T05:15:49Z
    Writing application         : mkvmerge v25.0.0 ('Prog Noir') 64-bit
    Writing library             : libebml v1.3.6 + libmatroska v1.4.9 / Lavf57.7.2

    Video
    ID                          : 1
    Format                      : AVC
    Format/Info                 : Advanced Video Codec
    Format profile              : High@L4.1
    Format settings             : CABAC / 4 Ref Frames
    Format settings, CABAC      : Yes
    Format settings, RefFrames  : 4 frames
    Codec ID                    : V_MPEG4/ISO/AVC
    Duration                    : 1 h 47 min
    Bit rate                    : 7 493 kb/s
    Width                       : 1 920 pixels
    Height                      : 1 080 pixels
    Display aspect ratio        : 16:9
    Frame rate mode             : Constant
    Frame rate                  : 24.000 FPS
    Color space                 : YUV
    Chroma subsampling          : 4:2:0
    Bit depth                   : 8 bits
    Scan type                   : Progressive
    Bits/(Pixel*Frame)          : 0.151
    Stream size                 : 5.60 GiB (79%)
    Title                       : HD1080p [Bluray]
    Writing library             : x264 core 148 r2708 86b7198
    Encoding settings           : cabac=1 / ref=4 / deblock=1:0:0 / analyse=0x3:0x133 / me=esa / subme=10 / psy=1 / psy_rd=1.00:0.00 / mixed_ref=1 / me_range=24 / chroma_me=1 / trellis=2 / 8x8dct=1 / cqm=0 / deadzone=21,11 / fast_pskip=1 / chroma_qp_offset=-2 / threads=12 / lookahead_threads=2 / sliced_threads=0 / nr=0 / decimate=1 / interlaced=0 / bluray_compat=0 / constrained_intra=0 / bframes=8 / b_pyramid=2 / b_adapt=2 / b_bias=0 / direct=3 / weightb=1 / open_gop=0 / weightp=2 / keyint=240 / keyint_min=24 / scenecut=40 / intra_refresh=0 / rc_lookahead=60 / rc=crf / mbtree=1 / crf=20.0 / qcomp=0.60 / qpmin=0 / qpmax=69 / qpstep=4 / vbv_maxrate=62500 / vbv_bufsize=78125 / crf_max=0.0 / nal_hrd=none / filler=0 / ip_ratio=1.40 / aq=1:1.00
    Default                     : Yes
    Forced                      : No
    Color range                 : Limited
    Color primaries             : BT.709
    Transfer characteristics    : BT.709
    Matrix coefficients         : BT.709
    Statistics Tags Issue       : mkvmerge v25.0.0 ('Prog Noir') 64-bit 2018-10-04 01:13:50 / mkvmerge v25.0.0 ('Prog Noir') 64-bit 2018-10-04 01:13:50 / UTC 2017-08-09T05:15:49Z
    FromStats_BitRate           : 7661972
    FromStats_Duration          : 01:47:00.917000000
    FromStats_FrameCount        : 154102
    FromStats_StreamSize        : 6149611381

    Audio #1
    ID                          : 2
    Format                      : AC-3
    Format/Info                 : Audio Coding 3
    Format settings, Endianness : Big
    Codec ID                    : A_AC3
    Duration                    : 1 h 47 min
    Bit rate mode               : Constant
    Bit rate                    : 256 kb/s
    Channel(s)                  : 2 channels
    Channel positions           : Front: L R
    Sampling rate               : 48.0 kHz
    Frame rate                  : 31.250 FPS (1536 SPF)
    Bit depth                   : 16 bits
    Compression mode            : Lossy
    Stream size                 : 196 MiB (3%)
    Title                       : AC3_2.0_Itunes_Esp
    Language                    : Spanish
    Service kind                : Complete Main
    Default                     : Yes
    Forced                      : No
    Statistics Tags Issue       : mkvmerge v25.0.0 ('Prog Noir') 64-bit 2018-10-04 01:13:50 / mkvmerge v25.0.0 ('Prog Noir') 64-bit 2018-10-04 01:13:50 / UTC 2017-08-09T05:15:49Z
    FromStats_BitRate           : 256000
    FromStats_Duration          : 01:47:00.960000000
    FromStats_FrameCount        : 200655
    FromStats_StreamSize        : 205470720

    Audio #2
    ID                          : 3
    Format                      : DTS
    Format/Info                 : Digital Theater Systems
    Mode                        : 16
    Format settings, Endianness : Big
    Codec ID                    : A_DTS
    Duration                    : 1 h 47 min
    Bit rate mode               : Constant
    Bit rate                    : 1 509 kb/s
    Channel(s)                  : 6 channels
    Channel positions           : Front: L C R, Side: L R, LFE
    Sampling rate               : 48.0 kHz
    Frame rate                  : 93.750 FPS (512 SPF)
    Bit depth                   : 24 bits
    Compression mode            : Lossy
    Stream size                 : 1.13 GiB (16%)
    Title                       : DTS_5.1_Bluray_Chi
    Language                    : Chinese
    Default                     : No
    Forced                      : No
    Statistics Tags Issue       : mkvmerge v25.0.0 ('Prog Noir') 64-bit 2018-10-04 01:13:50 / mkvmerge v25.0.0 ('Prog Noir') 64-bit 2018-10-04 01:13:50 / UTC 2017-08-09T05:15:49Z
    FromStats_BitRate           : 1508999
    FromStats_Duration          : 01:47:00.907000000
    FromStats_FrameCount        : 601960
    FromStats_StreamSize        : 1211143520

    Text #1
    ID                          : 4
    Format                      : PGS
    Muxing mode                 : zlib
    Codec ID                    : S_HDMV/PGS
    Codec ID/Info               : Picture based subtitle format used on BDs/HD-DVDs
    Title                       : Sub_Esp [PGS]
    Language                    : Spanish
    Default                     : No
    Forced                      : No
    Statistics Tags Issue       : mkvmerge v25.0.0 ('Prog Noir') 64-bit 2018-10-04 01:13:50 / mkvmerge v25.0.0 ('Prog Noir') 64-bit 2018-10-04 01:13:50 / UTC 2017-08-09T05:15:49Z
    FromStats_BitRate           : 31163
    FromStats_Duration          : 01:33:28.000000000
    FromStats_FrameCount        : 2013
    FromStats_StreamSize        : 21845442

    Text #2
    ID                          : 5
    Format                      : PGS
    Muxing mode                 : zlib
    Codec ID                    : S_HDMV/PGS
    Codec ID/Info               : Picture based subtitle format used on BDs/HD-DVDs
    Title                       : Sub_Eng [PGS]
    Language                    : English
    Default                     : No
    Forced                      : No
    Statistics Tags Issue       : mkvmerge v25.0.0 ('Prog Noir') 64-bit 2018-10-04 01:13:50 / mkvmerge v25.0.0 ('Prog Noir') 64-bit 2018-10-04 01:13:50 / UTC 2017-08-09T05:15:49Z
    FromStats_BitRate           : 30386
    FromStats_Duration          : 01:33:28.000000000
    FromStats_FrameCount        : 2016
    FromStats_StreamSize        : 21301264

    Menu
    00:00:00.000                : :Chapter 1
    00:07:30.375                : :Chapter 2
    00:13:30.167                : :Chapter 3
    00:19:07.208                : :Chapter 4
    00:26:22.208                : :Chapter 5
    00:32:20.417                : :Chapter 6
    00:38:53.708                : :Chapter 7
    00:44:52.208                : :Chapter 8
    00:50:39.750                : :Chapter 9
    00:57:58.875                : :Chapter 10
    01:04:38.458                : :Chapter 11
    01:12:43.833                : :Chapter 12
    01:18:05.583                : :Chapter 13
    01:24:19.167                : :Chapter 14
    01:30:57.292                : :Chapter 15
    01:35:21.083                : :Chapter 16

  • Peso: 7,06 GiB

Sinopsis

Esta película presenta a un profesor de arqueología China llamado Jack (Jackie Chan), que trabaja en equipo junto a una profesora india, Ashmita (Disha Patani), y su asistente Kyra (Amyra Dastur),
para encontrar el tesoro perdido de Magadha. Estos consiguen encontrar en una cueva de hielo tibetana un arma perteneciente a la realeza que está escondida junto al tesoro, pero son atacados por Randall (Sonu Sood), un descendiente del líder del ejército rebelde. Una vez libre, la comitiva marcha a Dubai para encontrar un diamante, y en su viaje dan con la clave que revela el verdadero secreto.

Stanley Tong (El mito) dirige esta cinta protagonizada por Jackie Chan (Five Against a Bullet), Disha Patani (Loafer) y Sonu Sood (Padmavati).

¡Audio Latino AC3 2.0 Reparado!

Ficha técnica

Video trailer de la película

Enlaces de descarga

Rip de Bluray

Descargar Kung Fu Yoga (2017) Full 1080p Latino




Aportes de DPeliculasHDmega la pass es:dpeliculashdmega.org Aportes de CinemaniaHD la pass es:cinemaniahdd.com

Películas relacionadas

  • La balada de Buster Scruggs (2018) NF 1080p Latino

    2018
    La balada de Buster Scruggs (2018) NF 1080p Latino

    0.0 2h 12m 2018

    Los siempre singulares Joel y Ethan Cohen escriben y dirigen esta antología de seis historias del Salvaje...

    Director: Joel Coen

    Género: Comedia

    Actores: Zoe Kazan

  • Cambio de princesa (2018) NF 1080p Latino

    2018
    Cambio de princesa (2018) NF 1080p Latino

    0.0 1h 41m 2018

    Una repostera de Chicago y una futura princesa descubren que parecen gemelas, así que idean un plan...

    Director: Mike Rohl

    Género: Comedia

    Actores: Vanessa Hudgens

  • La pequeña brujita (2018) AMZN 1080p Latino

    2018
    La pequeña brujita (2018) AMZN 1080p Latino

    5.0 1h 43m 2018

    Descargar La pequeña brujita (2018) AMZN 1080p Latino, Mega, Google Drive. La pequeña bruja sólo tiene...

    Director: Mike Schaerer

    Género: Comedia

    Actores: Verena Bosshard

  • El Justiciero 2 (2018) Full 1080p Latino

    2018
    El Justiciero 2 (2018) Full 1080p Latino

    5.0 2h 0m 2018

    Descargar El Justiciero 2 (2018) Full 1080p Latino, Mega, Google Drive. Robert McCall (Denzel Washington)...

    Director: Donald Sparks

    Género: Acción

    Actores: Wesley Pereira

Comentarios 0