×

¿Problemas para descargar con Mozilla, EDGE? Deshabilita la opción "Abrir vinculos en una pestaña nueva" tal como lo muestra ésta imagen.

Kung Fu Panda (2008-2016) Colección REMUX 1080p Latino – CMHDD

53 vistas

Información de Kung Fu Panda (2008-2016) Colección REMUX 1080p Latino – CMHDD

Datos de la película

  • Calidad: Full 1080p
  • Audio: Español Latino AC3 5.1 BLURAY - Ingles DTS 5.1 BLURAY
  • Subtitulos: Español Latino PGS
  • Resolución: 19201080p
  • Formato: MKV
  • Codec: H.264
  • Encoder: Dracarys
  • Mediainfo: Clic para Mostrar Datos Ver
  • Kung Fu Panda (2008) REMUX 1080p Latino - CMHDD

    Format                      : Matroska
    Format version              : Version 4
    File size                   : 16.5 GiB
    Duration                    : 1 h 32 min
    Overall bit rate mode       : Variable
    Overall bit rate            : 25.6 Mb/s
    Movie name                  : Kung Fu Panda (2008) REMUX 1080p Latino - CMHDD
    Encoded date                : UTC 2024-03-09 00:43:56
    Writing application         : mkvmerge v47.0.0 ('Black Flag') 64-bit
    Writing library             : libebml v1.3.10 + libmatroska v1.5.2

    Video
    ID                          : 1
    Format                      : AVC
    Format/Info                 : Advanced Video Codec
    Format profile              : High@L4.1
    Format settings             : CABAC / 4 Ref Frames
    Format settings, CABAC      : Yes
    Format settings, Reference  : 4 frames
    Codec ID                    : V_MPEG4/ISO/AVC
    Duration                    : 1 h 32 min
    Bit rate mode               : Variable
    Bit rate                    : 21.0 Mb/s
    Maximum bit rate            : 34.0 Mb/s
    Width                       : 1 920 pixels
    Height                      : 1 080 pixels
    Display aspect ratio        : 16:9
    Frame rate mode             : Constant
    Frame rate                  : 23.976 (24000/1001) FPS
    Color space                 : YUV
    Chroma subsampling          : 4:2:0
    Bit depth                   : 8 bits
    Scan type                   : Progressive
    Bits/(Pixel*Frame)          : 0.422
    Stream size                 : 13.5 GiB (82%)
    Language                    : English
    Default                     : No
    Forced                      : No
    Color range                 : Limited
    Color primaries             : BT.709
    Transfer characteristics    : BT.709
    Matrix coefficients         : BT.709

    Audio #1
    ID                          : 2
    Format                      : AC-3
    Format/Info                 : Audio Coding 3
    Commercial name             : Dolby Digital
    Codec ID                    : A_AC3
    Duration                    : 1 h 32 min
    Bit rate mode               : Constant
    Bit rate                    : 640 kb/s
    Channel(s)                  : 6 channels
    Channel layout              : L R C LFE Ls Rs
    Sampling rate               : 48.0 kHz
    Frame rate                  : 31.250 FPS (1536 SPF)
    Compression mode            : Lossy
    Stream size                 : 422 MiB (3%)
    Language                    : Spanish
    Service kind                : Complete Main
    Default                     : Yes
    Forced                      : Yes

    Audio #2
    ID                          : 3
    Format                      : AC-3
    Format/Info                 : Audio Coding 3
    Commercial name             : Dolby Digital
    Codec ID                    : A_AC3
    Duration                    : 1 h 32 min
    Bit rate mode               : Constant
    Bit rate                    : 640 kb/s
    Channel(s)                  : 6 channels
    Channel layout              : L R C LFE Ls Rs
    Sampling rate               : 48.0 kHz
    Frame rate                  : 31.250 FPS (1536 SPF)
    Compression mode            : Lossy
    Stream size                 : 422 MiB (3%)
    Language                    : English
    Service kind                : Complete Main
    Default                     : No
    Forced                      : No

    Audio #3
    ID                          : 4
    Format                      : MLP FBA
    Format/Info                 : Meridian Lossless Packing FBA
    Commercial name             : Dolby TrueHD
    Codec ID                    : A_TRUEHD
    Duration                    : 1 h 32 min
    Bit rate mode               : Variable
    Bit rate                    : 3 256 kb/s
    Maximum bit rate            : 4 950 kb/s
    Channel(s)                  : 6 channels
    Channel layout              : L R C LFE Ls Rs
    Sampling rate               : 48.0 kHz
    Frame rate                  : 1 200.000 FPS (40 SPF)
    Compression mode            : Lossless
    Stream size                 : 2.10 GiB (13%)
    Language                    : English
    Default                     : No
    Forced                      : No

    Text #1
    ID                          : 5
    Format                      : UTF-8
    Codec ID                    : S_TEXT/UTF8
    Codec ID/Info               : UTF-8 Plain Text
    Duration                    : 1 h 24 min
    Bit rate                    : 47 b/s
    Frame rate                  : 0.187 FPS
    Count of elements           : 946
    Stream size                 : 29.4 KiB (0%)
    Title                       : Latino SRT
    Language                    : Spanish
    Default                     : No
    Forced                      : No

    Text #2
    ID                          : 6
    Format                      : PGS
    Muxing mode                 : zlib
    Codec ID                    : S_HDMV/PGS
    Codec ID/Info               : Picture based subtitle format used on BDs/HD-DVDs
    Duration                    : 1 h 24 min
    Bit rate                    : 30.3 kb/s
    Frame rate                  : 0.376 FPS
    Count of elements           : 1898
    Stream size                 : 18.2 MiB (0%)
    Title                       : Latino PGS
    Language                    : Spanish
    Default                     : No
    Forced                      : No

    Menu
    00:00:00.000                : en:Chapter 01
    00:02:31.401                : en:Chapter 02
    00:05:17.066                : en:Chapter 03
    00:07:58.895                : en:Chapter 04
    00:10:41.932                : en:Chapter 05
    00:16:39.331                : en:Chapter 06
    00:19:28.500                : en:Chapter 07
    00:22:41.651                : en:Chapter 08
    00:26:19.869                : en:Chapter 09
    00:31:13.872                : en:Chapter 10
    00:35:26.124                : en:Chapter 11
    00:38:35.604                : en:Chapter 12
    00:42:34.760                : en:Chapter 13
    00:45:45.909                : en:Chapter 14
    00:51:29.711                : en:Chapter 15
    00:56:29.052                : en:Chapter 16
    00:58:48.358                : en:Chapter 17
    01:02:06.222                : en:Chapter 18
    01:06:52.883                : en:Chapter 19
    01:09:52.938                : en:Chapter 20
    01:14:05.482                : en:Chapter 21
    01:20:04.466                : en:Chapter 22
    01:23:11.987                : en:Chapter 23

    -----------------------------------------------------------------------------------------------------------------------------------------------------------------------------

    Kung Fu Panda 2 (2011) REMUX 1080p Latino - CMHDD

    Format                      : Matroska
    Format version              : Version 4
    File size                   : 19.4 GiB
    Duration                    : 1 h 30 min
    Overall bit rate mode       : Variable
    Overall bit rate            : 30.8 Mb/s
    Movie name                  : Kung Fu Panda 2 (2011) REMUX 1080p Latino - CMHDD
    Encoded date                : UTC 2024-03-09 00:46:53
    Writing application         : mkvmerge v47.0.0 ('Black Flag') 64-bit
    Writing library             : libebml v1.3.10 + libmatroska v1.5.2

    Video
    ID                          : 1
    Format                      : AVC
    Format/Info                 : Advanced Video Codec
    Format profile              : High@L4.1
    Format settings             : CABAC / 4 Ref Frames
    Format settings, CABAC      : Yes
    Format settings, Reference  : 4 frames
    Codec ID                    : V_MPEG4/ISO/AVC
    Duration                    : 1 h 30 min
    Bit rate mode               : Variable
    Bit rate                    : 25.8 Mb/s
    Maximum bit rate            : 34.2 Mb/s
    Width                       : 1 920 pixels
    Height                      : 1 080 pixels
    Display aspect ratio        : 16:9
    Frame rate mode             : Constant
    Frame rate                  : 23.976 (24000/1001) FPS
    Color space                 : YUV
    Chroma subsampling          : 4:2:0
    Bit depth                   : 8 bits
    Scan type                   : Progressive
    Bits/(Pixel*Frame)          : 0.520
    Stream size                 : 16.3 GiB (84%)
    Language                    : English
    Default                     : No
    Forced                      : No

    Audio #1
    ID                          : 2
    Format                      : AC-3
    Format/Info                 : Audio Coding 3
    Commercial name             : Dolby Digital
    Codec ID                    : A_AC3
    Duration                    : 1 h 30 min
    Bit rate mode               : Constant
    Bit rate                    : 640 kb/s
    Channel(s)                  : 6 channels
    Channel layout              : L R C LFE Ls Rs
    Sampling rate               : 48.0 kHz
    Frame rate                  : 31.250 FPS (1536 SPF)
    Compression mode            : Lossy
    Stream size                 : 414 MiB (2%)
    Language                    : Spanish
    Service kind                : Complete Main
    Default                     : Yes
    Forced                      : Yes

    Audio #2
    ID                          : 3
    Format                      : AC-3
    Format/Info                 : Audio Coding 3
    Commercial name             : Dolby Digital
    Codec ID                    : A_AC3
    Duration                    : 1 h 30 min
    Bit rate mode               : Constant
    Bit rate                    : 640 kb/s
    Channel(s)                  : 6 channels
    Channel layout              : L R C LFE Ls Rs
    Sampling rate               : 48.0 kHz
    Frame rate                  : 31.250 FPS (1536 SPF)
    Compression mode            : Lossy
    Stream size                 : 414 MiB (2%)
    Language                    : English
    Service kind                : Complete Main
    Default                     : No
    Forced                      : No

    Audio #3
    ID                          : 4
    Format                      : MLP FBA
    Format/Info                 : Meridian Lossless Packing FBA
    Commercial name             : Dolby TrueHD
    Codec ID                    : A_TRUEHD
    Duration                    : 1 h 30 min
    Bit rate mode               : Variable
    Bit rate                    : 3 594 kb/s
    Maximum bit rate            : 5 538 kb/s
    Channel(s)                  : 8 channels
    Channel layout              : L R C LFE Ls Rs Lb Rb
    Sampling rate               : 48.0 kHz
    Frame rate                  : 1 200.000 FPS (40 SPF)
    Compression mode            : Lossless
    Stream size                 : 2.27 GiB (12%)
    Language                    : English
    Default                     : No
    Forced                      : No

    Text #1
    ID                          : 5
    Format                      : UTF-8
    Codec ID                    : S_TEXT/UTF8
    Codec ID/Info               : UTF-8 Plain Text
    Duration                    : 1 h 20 min
    Bit rate                    : 51 b/s
    Frame rate                  : 0.180 FPS
    Count of elements           : 872
    Stream size                 : 30.4 KiB (0%)
    Title                       : Latino SRT
    Language                    : Spanish
    Default                     : No
    Forced                      : No

    Text #2
    ID                          : 6
    Format                      : PGS
    Muxing mode                 : zlib
    Codec ID                    : S_HDMV/PGS
    Codec ID/Info               : Picture based subtitle format used on BDs/HD-DVDs
    Duration                    : 1 h 20 min
    Bit rate                    : 36.7 kb/s
    Frame rate                  : 0.349 FPS
    Count of elements           : 1694
    Stream size                 : 21.3 MiB (0%)
    Title                       : Latino PGS
    Language                    : Spanish
    Default                     : No
    Forced                      : No

    Menu
    00:00:00.000                : en:Chapter 01
    00:03:54.275                : en:Chapter 02
    00:10:35.343                : en:Chapter 03
    00:16:09.385                : en:Chapter 04
    00:21:15.774                : en:Chapter 05
    00:29:56.628                : en:Chapter 06
    00:36:53.878                : en:Chapter 07
    00:41:14.180                : en:Chapter 08
    00:49:44.815                : en:Chapter 09
    00:54:06.826                : en:Chapter 10
    00:58:54.781                : en:Chapter 11
    01:05:09.238                : en:Chapter 12
    01:11:43.799                : en:Chapter 13
    01:15:31.902                : en:Chapter 14
    01:21:15.871                : en:Chapter 15

    ------------------------------------------------------------------------------------------------------------------------------------------------------------------------

    Kung Fu Panda 3 (2016) REMUX 1080p Latino - CMHDD

    Format                      : Matroska
    Format version              : Version 4
    File size                   : 21.8 GiB
    Duration                    : 1 h 34 min
    Overall bit rate mode       : Variable
    Overall bit rate            : 32.8 Mb/s
    Movie name                  : Kung Fu Panda 3 (2016) REMUX 1080p Latino - CMHDD
    Encoded date                : UTC 2024-03-09 00:48:16
    Writing application         : mkvmerge v47.0.0 ('Black Flag') 64-bit
    Writing library             : libebml v1.3.10 + libmatroska v1.5.2

    Video
    ID                          : 1
    Format                      : AVC
    Format/Info                 : Advanced Video Codec
    Format profile              : High@L4.1
    Format settings             : CABAC / 4 Ref Frames
    Format settings, CABAC      : Yes
    Format settings, Reference  : 4 frames
    Codec ID                    : V_MPEG4/ISO/AVC
    Duration                    : 1 h 34 min
    Bit rate mode               : Variable
    Bit rate                    : 27.6 Mb/s
    Maximum bit rate            : 31.0 Mb/s
    Width                       : 1 920 pixels
    Height                      : 1 080 pixels
    Display aspect ratio        : 16:9
    Frame rate mode             : Constant
    Frame rate                  : 23.976 (24000/1001) FPS
    Color space                 : YUV
    Chroma subsampling          : 4:2:0
    Bit depth                   : 8 bits
    Scan type                   : Progressive
    Bits/(Pixel*Frame)          : 0.555
    Stream size                 : 18.3 GiB (84%)
    Language                    : English
    Default                     : No
    Forced                      : No

    Audio #1
    ID                          : 2
    Format                      : AC-3
    Format/Info                 : Audio Coding 3
    Commercial name             : Dolby Digital
    Codec ID                    : A_AC3
    Duration                    : 1 h 34 min
    Bit rate mode               : Constant
    Bit rate                    : 448 kb/s
    Channel(s)                  : 6 channels
    Channel layout              : L R C LFE Ls Rs
    Sampling rate               : 48.0 kHz
    Frame rate                  : 31.250 FPS (1536 SPF)
    Compression mode            : Lossy
    Stream size                 : 304 MiB (1%)
    Language                    : Spanish
    Service kind                : Complete Main
    Default                     : Yes
    Forced                      : Yes

    Audio #2
    ID                          : 3
    Format                      : DTS ES XLL
    Format/Info                 : Digital Theater Systems
    Commercial name             : DTS-HD Master Audio
    Codec ID                    : A_DTS
    Duration                    : 1 h 34 min
    Bit rate mode               : Variable
    Bit rate                    : 4 784 kb/s
    Channel(s)                  : 8 channels
    Channel layout              : C L R Ls Rs LFE Lb Rb
    Sampling rate               : 48.0 kHz
    Frame rate                  : 93.750 FPS (512 SPF)
    Bit depth                   : 24 bits
    Compression mode            : Lossless
    Stream size                 : 3.17 GiB (15%)
    Language                    : English
    Default                     : No
    Forced                      : No

    Text #1
    ID                          : 4
    Format                      : UTF-8
    Codec ID                    : S_TEXT/UTF8
    Codec ID/Info               : UTF-8 Plain Text
    Duration                    : 1 h 22 min
    Bit rate                    : 57 b/s
    Frame rate                  : 0.242 FPS
    Count of elements           : 1200
    Stream size                 : 34.6 KiB (0%)
    Title                       : Latino SRT
    Language                    : Spanish
    Default                     : Yes
    Forced                      : No

    Text #2
    ID                          : 5
    Format                      : PGS
    Muxing mode                 : zlib
    Codec ID                    : S_HDMV/PGS
    Codec ID/Info               : Picture based subtitle format used on BDs/HD-DVDs
    Duration                    : 1 h 34 min
    Bit rate                    : 31.1 kb/s
    Frame rate                  : 0.426 FPS
    Count of elements           : 2406
    Stream size                 : 21.0 MiB (0%)
    Title                       : Latino PGS
    Language                    : Spanish
    Default                     : No
    Forced                      : No

    Menu
    00:00:00.000                : en:Chapter 01
    00:05:21.779                : en:Chapter 02
    00:08:10.239                : en:Chapter 03
    00:10:00.016                : en:Chapter 04
    00:12:26.036                : en:Chapter 05
    00:15:24.214                : en:Chapter 06
    00:19:08.230                : en:Chapter 07
    00:24:39.394                : en:Chapter 08
    00:30:17.607                : en:Chapter 09
    00:33:53.990                : en:Chapter 10
    00:36:18.259                : en:Chapter 11
    00:39:55.643                : en:Chapter 12
    00:43:32.651                : en:Chapter 13
    00:46:45.844                : en:Chapter 14
    00:51:41.181                : en:Chapter 15
    00:56:04.611                : en:Chapter 16
    00:59:48.167                : en:Chapter 17
    01:02:11.310                : en:Chapter 18
    01:05:26.964                : en:Chapter 19
    01:10:16.837                : en:Chapter 20
    01:14:06.900                : en:Chapter 21
    01:17:06.580                : en:Chapter 22
    01:20:34.788                : en:Chapter 23
    01:24:21.139                : en:Chapter 24

     

  • Peso: 57.6 GiB

Sinopsis

El protagonista es un oso panda llamado Po, el más vago de todas las criaturas del Valle de la Paz. Con poderosos enemigos acercándose, la esperanza es depositada en una antigua profecía que dice que un héroe se alzará para salvarles. Voces originales de Jack Black, Angelina Jolie, Dustin Hoffman, Lucy Liu & Jackie Chan.

Ficha técnica

Video trailer de la película

Enlaces de descarga

Rip de Bluray

Descargar Kung Fu Panda (2008-2016) Colección REMUX 1080p Latino – CMHDD




Aportes de DPeliculasHDmega la pass es:dpeliculashdmega.org Aportes de CinemaniaHD la pass es:cinemaniahdd.com Aportes recientes:cinemaniahdd.net
Guardado en : Acción , Animación , Aventura , Comedia , Familia

Películas relacionadas

descargar Kung Fu Panda (2008-2016) Colección REMUX 1080p Latino – CMHDD Full 1080p 1080p gratis, Kung Fu Panda (2008-2016) Colección REMUX 1080p Latino – CMHDD Full 1080p mega 1 link, Kung Fu Panda (2008-2016) Colección REMUX 1080p Latino – CMHDD Full 1080p pelicula completa, descargar Kung Fu Panda (2008-2016) Colección REMUX 1080p Latino – CMHDD Full 1080p gratis en mega.

Kung Fu Panda (2008-2016) Colección REMUX 1080p Latino – CMHDD pelicula full hd, Kung Fu Panda (2008-2016) Colección REMUX 1080p Latino – CMHDD mega latino, Kung Fu Panda (2008-2016) Colección REMUX 1080p Latino – CMHDD 4k latino, Kung Fu Panda (2008-2016) Colección REMUX 1080p Latino – CMHDD pelicula completa, Kung Fu Panda (2008-2016) Colección REMUX 1080p Latino – CMHDD descargar gratis, descargar Kung Fu Panda (2008-2016) Colección REMUX 1080p Latino – CMHDD pelicula latino, Kung Fu Panda (2008-2016) Colección REMUX 1080p Latino – CMHDD 1 link mega, Kung Fu Panda (2008-2016) Colección REMUX 1080p Latino – CMHDD 1 link google drive, Kung Fu Panda (2008-2016) Colección REMUX 1080p Latino – CMHDD hd 1080p latino.
Comentarios 0