×

¿Problemas para descargar con Mozilla, EDGE? Deshabilita la opción "Abrir vinculos en una pestaña nueva" tal como lo muestra ésta imagen.

Kung Fu Panda 2 (2011) Full HD 1080p Latino-CMHDD

2.725 vistas

Información de Kung Fu Panda 2 (2011) Full HD 1080p Latino-CMHDD

Datos de la película

  • Calidad: Full 1080p
  • Audio: Español Latino AC3 5.1 BLURAY - Ingles AC3 5.1 BLURAY
  • Subtitulos: Español Latino SRT - Ingles SRT
  • Resolución: 1920x1080p
  • Formato: MKV
  • Codec: H.264
  • Encoder: Dracarys | CinefiloCool
  • Mediainfo: Clic para Mostrar Datos Ver
  • Kung Fu Panda 2 (2011) Full HD 1080p Latino-CMHDD.mkv
    Format                      : Matroska
    Format version              : Version 4
    File size                   : 3.47 GiB
    Duration                    : 1 h 30 min
    Overall bit rate            : 5 497 kb/s
    Movie name                  : Kung Fu Panda 2 (2011) CinemaniaHDD.Net
    Encoded date                : UTC 2024-03-17 05:33:45
    Writing application         : mkvmerge v56.1.0 ('My Friend') 64-bit
    Writing library             : libebml v1.4.2 + libmatroska v1.6.4
    Attachments                 : CINEMANIAHD.png

    Video
    ID                          : 1
    Format                      : AVC
    Format/Info                 : Advanced Video Codec
    Format profile              : High@L4.1
    Format settings             : CABAC / 4 Ref Frames
    Format settings, CABAC      : Yes
    Format settings, Reference  : 4 frames
    Codec ID                    : V_MPEG4/ISO/AVC
    Duration                    : 1 h 30 min
    Bit rate                    : 4 204 kb/s
    Width                       : 1 920 pixels
    Height                      : 1 080 pixels
    Display aspect ratio        : 16:9
    Frame rate mode             : Constant
    Frame rate                  : 23.976 (24000/1001) FPS
    Color space                 : YUV
    Chroma subsampling          : 4:2:0
    Bit depth                   : 8 bits
    Scan type                   : Progressive
    Bits/(Pixel*Frame)          : 0.085
    Stream size                 : 2.65 GiB (76%)
    Title                       : Full HD1080p [CinemaniaHDD]
    Writing library             : x264 core 148 r2708 86b7198
    Encoding settings           : cabac=1 / ref=4 / deblock=1:0:0 / analyse=0x3:0x133 / me=esa / subme=9 / psy=1 / psy_rd=1.00:0.00 / mixed_ref=1 / me_range=16 / chroma_me=1 / trellis=2 / 8x8dct=1 / cqm=0 / deadzone=21,11 / fast_pskip=1 / chroma_qp_offset=-2 / threads=34 / lookahead_threads=2 / sliced_threads=0 / nr=0 / decimate=1 / interlaced=0 / bluray_compat=0 / constrained_intra=0 / bframes=3 / b_pyramid=2 / b_adapt=2 / b_bias=0 / direct=3 / weightb=1 / open_gop=0 / weightp=2 / keyint=240 / keyint_min=24 / scenecut=40 / intra_refresh=0 / rc_lookahead=60 / rc=crf / mbtree=1 / crf=20.0 / qcomp=0.60 / qpmin=0 / qpmax=69 / qpstep=4 / vbv_maxrate=62500 / vbv_bufsize=78125 / crf_max=0.0 / nal_hrd=none / filler=0 / ip_ratio=1.40 / aq=1:1.00
    Default                     : Yes
    Forced                      : Yes
    Color range                 : Limited
    Color primaries             : BT.709
    Transfer characteristics    : BT.709
    Matrix coefficients         : BT.709

    Audio #1
    ID                          : 2
    Format                      : AC-3
    Format/Info                 : Audio Coding 3
    Commercial name             : Dolby Digital
    Codec ID                    : A_AC3
    Duration                    : 1 h 30 min
    Bit rate mode               : Constant
    Bit rate                    : 640 kb/s
    Channel(s)                  : 6 channels
    Channel layout              : L R C LFE Ls Rs
    Sampling rate               : 48.0 kHz
    Frame rate                  : 31.250 FPS (1536 SPF)
    Compression mode            : Lossy
    Stream size                 : 414 MiB (12%)
    Title                       : Español Latino [CinemaniaHDD]
    Language                    : Spanish
    Service kind                : Complete Main
    Default                     : Yes
    Forced                      : Yes

    Audio #2
    ID                          : 3
    Format                      : AC-3
    Format/Info                 : Audio Coding 3
    Commercial name             : Dolby Digital
    Codec ID                    : A_AC3
    Duration                    : 1 h 30 min
    Bit rate mode               : Constant
    Bit rate                    : 640 kb/s
    Channel(s)                  : 6 channels
    Channel layout              : L R C LFE Ls Rs
    Sampling rate               : 48.0 kHz
    Frame rate                  : 31.250 FPS (1536 SPF)
    Compression mode            : Lossy
    Stream size                 : 414 MiB (12%)
    Title                       : Ingles [CinemaniaHDD]
    Language                    : English
    Service kind                : Complete Main
    Default                     : No
    Forced                      : No

    Text #1
    ID                          : 4
    Format                      : PGS
    Muxing mode                 : zlib
    Codec ID                    : S_HDMV/PGS
    Codec ID/Info               : Picture based subtitle format used on BDs/HD-DVDs
    Duration                    : 1 h 20 min
    Bit rate                    : 36.7 kb/s
    Count of elements           : 1694
    Stream size                 : 21.3 MiB (1%)
    Title                       : Español-PGS [CinemaniaHDD]
    Language                    : Spanish
    Default                     : No
    Forced                      : No

    Text #2
    ID                          : 5
    Format                      : UTF-8
    Codec ID                    : S_TEXT/UTF8
    Codec ID/Info               : UTF-8 Plain Text
    Duration                    : 5 s 70 ms
    Bit rate                    : 4 b/s
    Count of elements           : 1
    Stream size                 : 3.00 Bytes (0%)
    Title                       : Forzados-SRT [CinemaniaHDD]
    Language                    : Spanish
    Default                     : Yes
    Forced                      : Yes

    Text #3
    ID                          : 6
    Format                      : UTF-8
    Codec ID                    : S_TEXT/UTF8
    Codec ID/Info               : UTF-8 Plain Text
    Duration                    : 1 h 20 min
    Bit rate                    : 52 b/s
    Count of elements           : 883
    Stream size                 : 30.9 KiB (0%)
    Title                       : Español-SRT [CinemaniaHDD]
    Language                    : Spanish
    Default                     : No
    Forced                      : No

    Text #4
    ID                          : 7
    Format                      : UTF-8
    Codec ID                    : S_TEXT/UTF8
    Codec ID/Info               : UTF-8 Plain Text
    Duration                    : 1 h 30 min
    Bit rate                    : 42 b/s
    Count of elements           : 875
    Stream size                 : 27.8 KiB (0%)
    Title                       : Ingles-SRT [CinemaniaHDD]
    Language                    : English
    Default                     : No
    Forced                      : No

    Menu
    00:00:00.000                : Chapter 1
    00:03:54.276                : Chapter 2
    00:10:35.343                : Chapter 3
    00:16:09.385                : Chapter 4
    00:21:15.774                : Chapter 5
    00:29:56.628                : Chapter 6
    00:36:53.878                : Chapter 7
    00:41:14.180                : Chapter 8
    00:49:44.815                : Chapter 9
    00:54:06.827                : Chapter 10
    00:58:54.781                : Chapter 11
    01:05:09.239                : Chapter 12
    01:11:43.799                : Chapter 13
    01:15:31.902                : Chapter 14
    01:21:15.871                : Chapter 15

  • Peso: 3.47 GiB

Sinopsis

Descargar Kung Fu Panda 2 (2011) Full HD 1080p Latino-CMHDD. Po está ahora viviendo su sueño como el Guerrero del Dragón, protegiendo el Valle de la Paz junto a sus amigos y sus compañeros maestros del kung fu. Los Cinco Furiosos. Pero su nueva e impresionante vida se encuentra amenazada por la aparición de un villano formidable, que planea usar un arma secreta imparable para conquistar China y destruir el kung fu. Po debe volver la vista a su pasado para descubrir los secretos de su misterioso origen; solo entonces podrá adquirir la fuerza que necesita para vencer.

RESUBIDA!!!

Ficha técnica

Video trailer de la película

Enlaces de descarga

Rip de Bluray

Descargar Kung Fu Panda 2 (2011) Full HD 1080p Latino-CMHDD




Aportes de DPeliculasHDmega la pass es:dpeliculashdmega.org Aportes de CinemaniaHD la pass es:cinemaniahdd.com Aportes recientes:cinemaniahdd.net

Películas relacionadas

descargar Kung Fu Panda 2 (2011) Full HD 1080p Latino-CMHDD Full 1080p 1080p gratis, Kung Fu Panda 2 (2011) Full HD 1080p Latino-CMHDD Full 1080p mega 1 link, Kung Fu Panda 2 (2011) Full HD 1080p Latino-CMHDD Full 1080p pelicula completa, descargar Kung Fu Panda 2 (2011) Full HD 1080p Latino-CMHDD Full 1080p gratis en mega.

Kung Fu Panda 2 (2011) Full HD 1080p Latino-CMHDD pelicula full hd, Kung Fu Panda 2 (2011) Full HD 1080p Latino-CMHDD mega latino, Kung Fu Panda 2 (2011) Full HD 1080p Latino-CMHDD 4k latino, Kung Fu Panda 2 (2011) Full HD 1080p Latino-CMHDD pelicula completa, Kung Fu Panda 2 (2011) Full HD 1080p Latino-CMHDD descargar gratis, descargar Kung Fu Panda 2 (2011) Full HD 1080p Latino-CMHDD pelicula latino, Kung Fu Panda 2 (2011) Full HD 1080p Latino-CMHDD 1 link mega, Kung Fu Panda 2 (2011) Full HD 1080p Latino-CMHDD 1 link google drive, Kung Fu Panda 2 (2011) Full HD 1080p Latino-CMHDD hd 1080p latino.
Comentarios 0