×

¿Problemas para descargar con Mozilla, EDGE? Deshabilita la opción "Abrir vinculos en una pestaña nueva" tal como lo muestra ésta imagen.

Kung Fu Dunk (2008) REMUX 1080p Castellano

1.107 vistas

Información de Kung Fu Dunk (2008) REMUX 1080p Castellano

Datos de la película

  • Calidad: Full 1080p
  • Audio: Se especifica abajo de la Sinopsis
  • Subtitulos: Español Latino SRT- FORZADOS SRT
  • Resolución: 1920x1080p
  • Formato: MKV
  • Codec: H.264
  • Encoder: CinefiloCool
  • Mediainfo: Clic para Mostrar Datos Ver
  • Kung Fu Dunk (2008) REMUX 1080p Cast-CMHDD.mkv
    Format                      : Matroska
    Format version              : Version 4
    File size                   : 15.6 GiB
    Duration                    : 1 h 38 min
    Overall bit rate mode       : Variable
    Overall bit rate            : 22.6 Mb/s
    Movie name                  : Kung Fu Dunk (2008) CinemaniaHDD.Net
    Encoded date                : UTC 2022-02-28 08:47:45
    Writing application         : mkvmerge v56.1.0 ('My Friend') 64-bit
    Writing library             : libebml v1.4.2 + libmatroska v1.6.4
    Attachments                 : CINEMANIAHD.png

    Video
    ID                          : 1
    ID in the original source m : 4113 (0x1011)
    Format                      : VC-1
    Format profile              : Advanced@L3
    Codec ID                    : V_MS/VFW/FOURCC / WVC1
    Codec ID/Hint               : Microsoft
    Duration                    : 1 h 38 min
    Bit rate                    : 20.0 Mb/s
    Width                       : 1 920 pixels
    Height                      : 1 080 pixels
    Display aspect ratio        : 16:9
    Frame rate mode             : Constant
    Frame rate                  : 23.976 (24000/1001) FPS
    Color space                 : YUV
    Chroma subsampling          : 4:2:0
    Bit depth                   : 8 bits
    Scan type                   : Progressive
    Compression mode            : Lossy
    Bits/(Pixel*Frame)          : 0.402
    Stream size                 : 13.8 GiB (88%)
    Title                       : REMUX HD1080p [CinemaniaHDD]
    Default                     : Yes
    Forced                      : Yes
    Original source medium      : Blu-ray

    Audio #1
    ID                          : 2
    Format                      : AC-3
    Format/Info                 : Audio Coding 3
    Commercial name             : Dolby Digital
    Codec ID                    : A_AC3
    Duration                    : 1 h 38 min
    Bit rate mode               : Constant
    Bit rate                    : 448 kb/s
    Channel(s)                  : 6 channels
    Channel layout              : L R C LFE Ls Rs
    Sampling rate               : 48.0 kHz
    Frame rate                  : 31.250 FPS (1536 SPF)
    Compression mode            : Lossy
    Stream size                 : 316 MiB (2%)
    Title                       : Castellano [CinemaniaHDD]
    Language                    : Spanish
    Service kind                : Complete Main
    Default                     : Yes
    Forced                      : Yes

    Audio #2
    ID                          : 3
    ID in the original source m : 4352 (0x1100)
    Format                      : DTS XLL
    Format/Info                 : Digital Theater Systems
    Commercial name             : DTS-HD Master Audio
    Codec ID                    : A_DTS
    Duration                    : 1 h 38 min
    Bit rate mode               : Variable
    Bit rate                    : 2 171 kb/s
    Channel(s)                  : 6 channels
    Channel layout              : C L R Ls Rs LFE
    Sampling rate               : 48.0 kHz
    Frame rate                  : 93.750 FPS (512 SPF)
    Bit depth                   : 16 bits
    Compression mode            : Lossless
    Stream size                 : 1.50 GiB (10%)
    Title                       : Chino [CinemaniaHDD]
    Language                    : Chinese
    Default                     : No
    Forced                      : No
    Original source medium      : Blu-ray

    Text #1
    ID                          : 4
    Format                      : UTF-8
    Codec ID                    : S_TEXT/UTF8
    Codec ID/Info               : UTF-8 Plain Text
    Duration                    : 46 min 28 s
    Bit rate                    : 0 b/s
    Count of elements           : 6
    Stream size                 : 213 Bytes (0%)
    Title                       : Forzados-SRT [CinemaniaHDD]
    Language                    : Spanish
    Default                     : Yes
    Forced                      : Yes

    Text #2
    ID                          : 5
    Format                      : UTF-8
    Codec ID                    : S_TEXT/UTF8
    Codec ID/Info               : UTF-8 Plain Text
    Duration                    : 1 h 36 min
    Bit rate                    : 41 b/s
    Count of elements           : 948
    Stream size                 : 29.1 KiB (0%)
    Title                       : Español-SRT [CinemaniaHDD]
    Language                    : Spanish
    Default                     : No
    Forced                      : No

    Menu
    00:00:00.000                : Chapter 01
    00:05:08.725                : Chapter 02
    00:09:14.262                : Chapter 03
    00:14:39.837                : Chapter 04
    00:20:21.887                : Chapter 05
    00:25:16.139                : Chapter 06
    00:32:25.860                : Chapter 07
    00:36:25.183                : Chapter 08
    00:42:36.554                : Chapter 09
    00:47:29.721                : Chapter 10
    00:53:24.701                : Chapter 11
    00:59:37.574                : Chapter 12
    01:06:31.904                : Chapter 13
    01:12:07.323                : Chapter 14
    01:18:26.284                : Chapter 15
    01:24:22.724                : Chapter 16
    01:26:54.125                : Chapter 17
    01:30:35.263                : Chapter 18

  • Peso: 15.6 GiB

Sinopsis

Descargar Kung Fu Dunk (2008) REMUX 1080p Castellano. “Kung Fu Dunk” es la adaptación cinematográfica del manga y anime “Slam Dunk” de Takehiko Inoue. Sin embargo, para evitar problemas legales, el film fue renombrado como “Kung Fu Dunk”. La historia se centra en un huérfano estudiante de Kung Fu que se convierte en un exitoso jugador de basketball y esta protagonizada por Jay Chou, junto a Charlene Choi, Wilson Chen, Eric Tsang y Baron Chen.

Audio Español Castellano AC3 5.1 + Chino DTS-HD 5.1 Bluray
Disponible Solo Para VIP!!!

Ficha técnica

Video trailer de la película

Enlaces de descarga

Rip de Bluray

Descargar Kung Fu Dunk (2008) REMUX 1080p Castellano


Aportes de DPeliculasHDmega la pass es:dpeliculashdmega.org Aportes de CinemaniaHD la pass es:cinemaniahdd.com
Guardado en : Acción , Aventura , Comedia , Remux

Películas relacionadas

  • Un mundo extraño (2022) HD 1080p Latino

    Un mundo extraño (2022) HD 1080p Latino

    2022
    Un mundo extraño (2022) HD 1080p Latino

    1h 42m 2022

    Descargar Un mundo extraño (2022) HD 1080p Latino. Los Clades son una familia conocida en todo el mundo,...

    Director: Thai Bettistea

    Género: Animación

    Actores: Reed Buck

  • Un mundo extraño (2022) REMUX 1080p Latino

    Un mundo extraño (2022) REMUX 1080p Latino

    2022
    Un mundo extraño (2022) REMUX 1080p Latino

    1h 42m 2022

    Descargar Un mundo extraño (2022) REMUX 1080p. Un viaje a una tierra inexplorada y traicionera en la...

    Director: Thai Bettistea

    Género: Animación

    Actores: Reed Buck

  • Espiritu Libre (2023) NF WEB-DL 1080p Latino

    Espiritu Libre (2023) NF WEB-DL 1080p Latino

    2023
    Espiritu Libre (2023) NF WEB-DL 1080p Latino

    1h 49m 2023

    Descargar Espiritu Libre (2023) NF WEB-DL 1080p Latino. La película se basa en la increíble historia...

    Director: Sarah Spillane

    Género: Aventura

    Actores: Vivien Turner

descargar Kung Fu Dunk (2008) REMUX 1080p Castellano Full 1080p 1080p gratis, Kung Fu Dunk (2008) REMUX 1080p Castellano Full 1080p mega 1 link, Kung Fu Dunk (2008) REMUX 1080p Castellano Full 1080p pelicula completa, descargar Kung Fu Dunk (2008) REMUX 1080p Castellano Full 1080p gratis en mega.

Kung Fu Dunk (2008) REMUX 1080p Castellano pelicula full hd, Kung Fu Dunk (2008) REMUX 1080p Castellano mega latino, Kung Fu Dunk (2008) REMUX 1080p Castellano 4k latino, Kung Fu Dunk (2008) REMUX 1080p Castellano pelicula completa, Kung Fu Dunk (2008) REMUX 1080p Castellano descargar gratis, descargar Kung Fu Dunk (2008) REMUX 1080p Castellano pelicula latino, Kung Fu Dunk (2008) REMUX 1080p Castellano 1 link mega, Kung Fu Dunk (2008) REMUX 1080p Castellano 1 link google drive, Kung Fu Dunk (2008) REMUX 1080p Castellano hd 1080p latino.
Comentarios 0