×

¿Problemas para descargar con Mozilla, EDGE? Deshabilita la opción "Abrir vinculos en una pestaña nueva" tal como lo muestra ésta imagen.

Kubo and the Two Strings (2016) REMUX 4K HDR Latino – CMHDD

278 vistas

Información de Kubo and the Two Strings (2016) REMUX 4K HDR Latino – CMHDD

Datos de la película

  • Calidad: 4K HDR
  • Audio: Español Latino AC3 2.0
  • Subtitulos: Español Latino PGS
  • Resolución: 3840x2160p
  • Formato: MKV
  • Codec: H.264
  • Encoder: Dracarys
  • Mediainfo: Clic para Mostrar Datos Ver
  • Format                      : Matroska
    Format version              : Version 4
    File size                   : 58.4 GiB
    Duration                    : 1 h 41 min
    Overall bit rate mode       : Variable
    Overall bit rate            : 82.4 Mb/s
    Movie name                  : Kubo and the Two Strings (2016) REMUX 4K HDR Latino - CMHDD
    Encoded date                : UTC 2023-03-07 01:36:46
    Writing application         : mkvmerge v47.0.0 ('Black Flag') 64-bit
    Writing library             : libebml v1.3.10 + libmatroska v1.5.2
    Cover                       : Yes
    Attachments                 : cover.jpg

    Video
    ID                          : 1
    ID in the original source m : 4113 (0x1011)
    Format                      : HEVC
    Format/Info                 : High Efficiency Video Coding
    Format profile              : Main 10@L5.1@High
    HDR format                  : SMPTE ST 2086, HDR10 compatible
    Codec ID                    : V_MPEGH/ISO/HEVC
    Duration                    : 1 h 41 min
    Bit rate                    : 76.5 Mb/s
    Width                       : 3 840 pixels
    Height                      : 2 160 pixels
    Display aspect ratio        : 16:9
    Frame rate mode             : Constant
    Frame rate                  : 24.000 FPS
    Color space                 : YUV
    Chroma subsampling          : 4:2:0 (Type 2)
    Bit depth                   : 10 bits
    Bits/(Pixel*Frame)          : 0.384
    Stream size                 : 54.2 GiB (93%)
    Default                     : Yes
    Forced                      : No
    Color range                 : Limited
    Color primaries             : BT.2020
    Transfer characteristics    : PQ
    Matrix coefficients         : BT.2020 non-constant
    Mastering display color pri : Display P3
    Mastering display luminance : min: 0.0001 cd/m2, max: 1000 cd/m2
    Maximum Content Light Level : 4057 cd/m2
    Maximum Frame-Average Light : 321 cd/m2
    Original source medium      : Blu-ray

    Audio #1
    ID                          : 2
    ID in the original source m : 4352 (0x1100)
    Format                      : MLP FBA 16-ch
    Format/Info                 : Meridian Lossless Packing FBA with 16-channel presentation
    Commercial name             : Dolby TrueHD with Dolby Atmos
    Codec ID                    : A_TRUEHD
    Duration                    : 1 h 41 min
    Bit rate mode               : Variable
    Bit rate                    : 3 882 kb/s
    Maximum bit rate            : 6 432 kb/s
    Channel(s)                  : 8 channels
    Channel layout              : L R C LFE Ls Rs Lb Rb
    Sampling rate               : 48.0 kHz
    Frame rate                  : 1 200.000 FPS (40 SPF)
    Compression mode            : Lossless
    Stream size                 : 2.75 GiB (5%)
    Language                    : English
    Default                     : No
    Forced                      : No
    Original source medium      : Blu-ray
    Number of dynamic objects   : 11
    Bed channel count           : 1 channel
    Bed channel configuration   : LFE

    Audio #2
    ID                          : 3
    ID in the original source m : 4352 (0x1100)
    Format                      : AC-3
    Format/Info                 : Audio Coding 3
    Commercial name             : Dolby Digital
    Codec ID                    : A_AC3
    Duration                    : 1 h 41 min
    Bit rate mode               : Constant
    Bit rate                    : 384 kb/s
    Channel(s)                  : 6 channels
    Channel layout              : L R C LFE Ls Rs
    Sampling rate               : 48.0 kHz
    Frame rate                  : 31.250 FPS (1536 SPF)
    Compression mode            : Lossy
    Stream size                 : 279 MiB (0%)
    Language                    : English
    Service kind                : Complete Main
    Default                     : No
    Forced                      : No
    Original source medium      : Blu-ray

    Audio #3
    ID                          : 4
    ID in the original source m : 4353 (0x1101)
    Format                      : DTS
    Format/Info                 : Digital Theater Systems
    Codec ID                    : A_DTS
    Duration                    : 1 h 41 min
    Bit rate mode               : Constant
    Bit rate                    : 1 509 kb/s
    Channel(s)                  : 6 channels
    Channel layout              : C L R Ls Rs LFE
    Sampling rate               : 48.0 kHz
    Frame rate                  : 93.750 FPS (512 SPF)
    Bit depth                   : 24 bits
    Compression mode            : Lossy
    Stream size                 : 1.07 GiB (2%)
    Language                    : Spanish
    Default                     : Yes
    Forced                      : No
    Original source medium      : Blu-ray

    Text #1
    ID                          : 5
    ID in the original source m : 4769 (0x12A1)
    Format                      : PGS
    Muxing mode                 : zlib
    Codec ID                    : S_HDMV/PGS
    Codec ID/Info               : Picture based subtitle format used on BDs/HD-DVDs
    Duration                    : 1 h 41 min
    Bit rate                    : 23.4 kb/s
    Frame rate                  : 0.349 FPS
    Count of elements           : 2114
    Stream size                 : 17.0 MiB (0%)
    Language                    : Spanish
    Default                     : No
    Forced                      : No
    Original source medium      : Blu-ray

    Text #2
    ID                          : 6
    ID in the original source m : 4771 (0x12A3)
    Format                      : PGS
    Muxing mode                 : zlib
    Codec ID                    : S_HDMV/PGS
    Codec ID/Info               : Picture based subtitle format used on BDs/HD-DVDs
    Duration                    : 7 s 0 ms
    Bit rate                    : 24.7 kb/s
    Frame rate                  : 0.286 FPS
    Count of elements           : 2
    Stream size                 : 21.1 KiB (0%)
    Language                    : Spanish
    Default                     : Yes
    Forced                      : No
    Original source medium      : Blu-ray

    Menu
    00:00:00.000                : en:Capítulo 01
    00:08:10.625                : en:Capítulo 02
    00:16:18.125                : en:Capítulo 03
    00:25:56.166                : en:Capítulo 04
    00:32:11.125                : en:Capítulo 05
    00:41:37.666                : en:Capítulo 06
    00:47:47.000                : en:Capítulo 07
    00:56:17.916                : en:Capítulo 08
    01:04:03.333                : en:Capítulo 09
    01:11:58.541                : en:Capítulo 10
    01:19:57.041                : en:Capítulo 11
    01:28:41.416                : en:Capítulo 12

  • Peso: 58.4 GiB

Sinopsis

Kubo es un joven desaliñado y bondadoso que se gana la vida humildemente y cuida de su madre en una apacible aldea costera. Tiene una tranquila existencia hasta que un espíritu del pasado vuelve para llevar a cabo una vieja venganza. De repente, rodeado por dioses y monstruos, Kubo verá que su supervivencia pasa por encontrar la armadura mágica de su caído padre, el más grande samurai que el mundo ha conocido. Llenándose de coraje, Kubo se embarca en una emocionante odisea enfrentándose a su historia familiar, navegando entre los elementos y luchando valientemente por la Tierra y las estrellas.

 

Laatino: DTS 5.1  –  Inglés: TrueHD 7.1

Ficha técnica

Video trailer de la película

Enlaces de descarga

Rip de Bluray

Descargar Kubo and the Two Strings (2016) REMUX 4K HDR Latino – CMHDD


Aportes de DPeliculasHDmega la pass es:dpeliculashdmega.org Aportes de CinemaniaHD la pass es:cinemaniahdd.com Aportes recientes:cinemaniahdd.net
Guardado en : Animación , Aventura , Familia

Películas relacionadas

descargar Kubo and the Two Strings (2016) REMUX 4K HDR Latino – CMHDD 4K HDR 1080p gratis, Kubo and the Two Strings (2016) REMUX 4K HDR Latino – CMHDD 4K HDR mega 1 link, Kubo and the Two Strings (2016) REMUX 4K HDR Latino – CMHDD 4K HDR pelicula completa, descargar Kubo and the Two Strings (2016) REMUX 4K HDR Latino – CMHDD 4K HDR gratis en mega.

Kubo and the Two Strings (2016) REMUX 4K HDR Latino – CMHDD pelicula full hd, Kubo and the Two Strings (2016) REMUX 4K HDR Latino – CMHDD mega latino, Kubo and the Two Strings (2016) REMUX 4K HDR Latino – CMHDD 4k latino, Kubo and the Two Strings (2016) REMUX 4K HDR Latino – CMHDD pelicula completa, Kubo and the Two Strings (2016) REMUX 4K HDR Latino – CMHDD descargar gratis, descargar Kubo and the Two Strings (2016) REMUX 4K HDR Latino – CMHDD pelicula latino, Kubo and the Two Strings (2016) REMUX 4K HDR Latino – CMHDD 1 link mega, Kubo and the Two Strings (2016) REMUX 4K HDR Latino – CMHDD 1 link google drive, Kubo and the Two Strings (2016) REMUX 4K HDR Latino – CMHDD hd 1080p latino.
Comentarios 0