×

¿Problemas para descargar con Mozilla, EDGE? Deshabilita la opción "Abrir vinculos en una pestaña nueva" tal como lo muestra ésta imagen.

Krampus (2015) REMUX 1080p Latino – CMHDD

159 vistas

Información de Krampus (2015) REMUX 1080p Latino – CMHDD

Datos de la película

  • Calidad:
  • Audio: Español Latino DTS 5.1 BLURAY - Ingles DTS 5.1 BLURAY
  • Subtitulos: Español Latino PGS
  • Resolución: 1920x1080p
  • Formato: MKV
  • Codec: H.264
  • Encoder: Dracarys
  • Mediainfo: Clic para Mostrar Datos Ver
  • Format                      : Matroska
    Format version              : Version 4
    File size                   : 26.8 GiB
    Duration                    : 1 h 37 min
    Overall bit rate mode       : Variable
    Overall bit rate            : 39.4 Mb/s
    Movie name                  : Krampus (2015) REMUX 1080p Latino - CMHDD
    Encoded date                : UTC 2021-12-09 02:19:57
    Writing application         : mkvmerge v17.0.0 ('Be Ur Friend') 64-bit
    Writing library             : libebml v1.3.5 + libmatroska v1.4.8

    Video
    ID                          : 1
    Format                      : AVC
    Format/Info                 : Advanced Video Codec
    Format profile              : High@L4.1
    Format settings             : CABAC / 4 Ref Frames
    Format settings, CABAC      : Yes
    Format settings, Reference  : 4 frames
    Codec ID                    : V_MPEG4/ISO/AVC
    Duration                    : 1 h 37 min
    Bit rate mode               : Variable
    Bit rate                    : 35.0 Mb/s
    Maximum bit rate            : 37.0 Mb/s
    Width                       : 1 920 pixels
    Height                      : 1 080 pixels
    Display aspect ratio        : 16:9
    Frame rate mode             : Constant
    Frame rate                  : 23.976 (24000/1001) FPS
    Color space                 : YUV
    Chroma subsampling          : 4:2:0
    Bit depth                   : 8 bits
    Scan type                   : Progressive
    Bits/(Pixel*Frame)          : 0.704
    Stream size                 : 23.9 GiB (89%)
    Default                     : Yes
    Forced                      : No

    Audio #1
    ID                          : 2
    Format                      : DTS XLL
    Format/Info                 : Digital Theater Systems
    Commercial name             : DTS-HD Master Audio
    Codec ID                    : A_DTS
    Duration                    : 1 h 37 min
    Bit rate mode               : Variable
    Bit rate                    : 3 575 kb/s
    Channel(s)                  : 6 channels
    Channel layout              : C L R Ls Rs LFE
    Sampling rate               : 48.0 kHz
    Frame rate                  : 93.750 FPS (512 SPF)
    Bit depth                   : 24 bits
    Compression mode            : Lossless
    Stream size                 : 2.44 GiB (9%)
    Language                    : English
    Default                     : No
    Forced                      : No

    Audio #2
    ID                          : 3
    Format                      : DTS
    Format/Info                 : Digital Theater Systems
    Codec ID                    : A_DTS
    Duration                    : 1 h 37 min
    Bit rate mode               : Constant
    Bit rate                    : 768 kb/s
    Channel(s)                  : 6 channels
    Channel layout              : C L R Ls Rs LFE
    Sampling rate               : 48.0 kHz
    Frame rate                  : 93.750 FPS (512 SPF)
    Bit depth                   : 24 bits
    Compression mode            : Lossy
    Stream size                 : 537 MiB (2%)
    Language                    : Spanish
    Default                     : Yes
    Forced                      : No

    Text #1
    ID                          : 4
    Format                      : PGS
    Muxing mode                 : zlib
    Codec ID                    : S_HDMV/PGS
    Codec ID/Info               : Picture based subtitle format used on BDs/HD-DVDs
    Duration                    : 1 h 36 min
    Bit rate                    : 27.6 kb/s
    Count of elements           : 2304
    Stream size                 : 19.1 MiB (0%)
    Language                    : Spanish
    Default                     : No
    Forced                      : No

    Text #2
    ID                          : 5
    Format                      : PGS
    Muxing mode                 : zlib
    Codec ID                    : S_HDMV/PGS
    Codec ID/Info               : Picture based subtitle format used on BDs/HD-DVDs
    Duration                    : 1 h 36 min
    Bit rate                    : 692 b/s
    Count of elements           : 51
    Stream size                 : 490 KiB (0%)
    Language                    : Spanish
    Default                     : No
    Forced                      : No

    Menu
    00:00:00.000                : en:Chapter 1
    00:03:20.325                : en:Chapter 2
    00:07:16.686                : en:Chapter 3
    00:14:18.065                : en:Chapter 4
    00:20:02.492                : en:Chapter 5
    00:27:26.603                : en:Chapter 6
    00:34:15.845                : en:Chapter 7
    00:37:44.303                : en:Chapter 8
    00:42:01.393                : en:Chapter 9
    00:45:11.959                : en:Chapter 10
    00:50:29.860                : en:Chapter 11
    00:56:07.155                : en:Chapter 12
    01:00:24.412                : en:Chapter 13
    01:05:34.931                : en:Chapter 14
    01:09:58.944                : en:Chapter 15
    01:14:38.348                : en:Chapter 16
    01:18:30.038                : en:Chapter 17
    01:23:17.659                : en:Chapter 18
    01:27:44.634                : en:Chapter 19
    01:32:27.667                : en:Chapter 20

  • Peso: 26.8 GiB

Sinopsis

El espíritu de la Navidad simboliza la unión familiar y en la generosidad, pero cuando Max ve que su familia se resquebraja pierde la fe en estos valores. Esto despertará la ira del Krampus, un ser mitológico que acecha al niño y a sus parientes para atormentarles las fiestas y hacerles vivir un infierno. Para enfrentarse al Krampus y salvar la vida, Max y los suyos tendrán que dejar a un lado sus diferencias y unir sus fuerzas contra el monstruo.

Ficha técnica

Video trailer de la película

Enlaces de descarga

Rip de Bluray

Descargar Krampus (2015) REMUX 1080p Latino – CMHDD


Aportes de DPeliculasHDmega la pass es:dpeliculashdmega.org Aportes de CinemaniaHD la pass es:cinemaniahdd.com
Guardado en : Comedia , Fantasía , Terror

Películas relacionadas

  • Hombre de familia (2000) REMUX 1080p Latino

    Hombre de familia (2000) REMUX 1080p Latino

    2000
    Hombre de familia (2000) REMUX 1080p Latino

    2h 1m 2000

    Descargar Hombre de familia (2000) REMUX 1080p Latino. Jack Campbell es un egocéntrico broker de Wall...

    Director: Robert Schroer

    Género: Comedia

    Actores: Wass Stevens

  • Te Amo Brother (2009) REMUX 1080p Latino

    Te Amo Brother (2009) REMUX 1080p Latino

    2009
    Te Amo Brother (2009) REMUX 1080p Latino

    1h 45m 2009

    Descargar Te Amo Brother (2009) REMUX 1080p Latino. Peter Klaven (Paul Rudd) es un joven que vive muy...

    Director: Scott Robertson

    Género: Comedia

    Actores: Vicki Davis

descargar Krampus (2015) REMUX 1080p Latino – CMHDD 1080p gratis, Krampus (2015) REMUX 1080p Latino – CMHDD mega 1 link, Krampus (2015) REMUX 1080p Latino – CMHDD pelicula completa, descargar Krampus (2015) REMUX 1080p Latino – CMHDD gratis en mega.

Krampus (2015) REMUX 1080p Latino – CMHDD pelicula full hd, Krampus (2015) REMUX 1080p Latino – CMHDD mega latino, Krampus (2015) REMUX 1080p Latino – CMHDD 4k latino, Krampus (2015) REMUX 1080p Latino – CMHDD pelicula completa, Krampus (2015) REMUX 1080p Latino – CMHDD descargar gratis, descargar Krampus (2015) REMUX 1080p Latino – CMHDD pelicula latino, Krampus (2015) REMUX 1080p Latino – CMHDD 1 link mega, Krampus (2015) REMUX 1080p Latino – CMHDD 1 link google drive, Krampus (2015) REMUX 1080p Latino – CMHDD hd 1080p latino.
Comentarios 0