×

¿Problemas para descargar con Mozilla, EDGE? Deshabilita la opción "Abrir vinculos en una pestaña nueva" tal como lo muestra ésta imagen.

Kong Skull Island (2017) REMUX 4K HDR Latino – CMHDD

350 vistas

Información de Kong Skull Island (2017) REMUX 4K HDR Latino – CMHDD

Datos de la película

  • Calidad: 4K HDR
  • Audio: Español Latino AC3 5.1 BLURAY - Ingles AC3 5.1 BLURAY
  • Subtitulos: Español Latino PGS
  • Resolución: 3840x2160p
  • Formato: MKV
  • Codec: H.264
  • Encoder: Dracarys
  • Mediainfo: Clic para Mostrar Datos Ver
  • Format                      : Matroska
    Format version              : Version 4
    File size                   : 47.3 GiB
    Duration                    : 1 h 58 min
    Overall bit rate mode       : Variable
    Overall bit rate            : 57.2 Mb/s
    Movie name                  : Kong: Skull Island (2017) REMUX 4K HDR Latino - CMHDD
    Encoded date                : UTC 2024-04-13 17:01:12
    Writing application         : mkvmerge v47.0.0 ('Black Flag') 64-bit
    Writing library             : libebml v1.3.10 + libmatroska v1.5.2

    Video
    ID                          : 1
    Format                      : HEVC
    Format/Info                 : High Efficiency Video Coding
    Format profile              : Main 10@L5.1@High
    HDR format                  : SMPTE ST 2086, HDR10 compatible
    Codec ID                    : V_MPEGH/ISO/HEVC
    Duration                    : 1 h 58 min
    Bit rate                    : 52.0 Mb/s
    Width                       : 3 840 pixels
    Height                      : 2 160 pixels
    Display aspect ratio        : 16:9
    Frame rate mode             : Constant
    Frame rate                  : 23.976 (24000/1001) FPS
    Color space                 : YUV
    Chroma subsampling          : 4:2:0 (Type 2)
    Bit depth                   : 10 bits
    Bits/(Pixel*Frame)          : 0.261
    Stream size                 : 43.0 GiB (91%)
    Writing library             : ATEME Titan File 3.8.3 (4.8.3.0)        
    Default                     : Yes
    Forced                      : No
    Color range                 : Limited
    Color primaries             : BT.2020
    Transfer characteristics    : PQ
    Matrix coefficients         : BT.2020 non-constant
    Mastering display color pri : Display P3
    Mastering display luminance : min: 0.0050 cd/m2, max: 4000 cd/m2
    Maximum Content Light Level : 456 cd/m2
    Maximum Frame-Average Light : 151 cd/m2

    Audio #1
    ID                          : 2
    Format                      : AC-3
    Format/Info                 : Audio Coding 3
    Commercial name             : Dolby Digital
    Codec ID                    : A_AC3
    Duration                    : 1 h 58 min
    Bit rate mode               : Constant
    Bit rate                    : 448 kb/s
    Channel(s)                  : 6 channels
    Channel layout              : L R C LFE Ls Rs
    Sampling rate               : 48.0 kHz
    Frame rate                  : 31.250 FPS (1536 SPF)
    Compression mode            : Lossy
    Stream size                 : 379 MiB (1%)
    Language                    : Spanish
    Service kind                : Complete Main
    Default                     : Yes
    Forced                      : Yes

    Audio #2
    ID                          : 3
    Format                      : AC-3
    Format/Info                 : Audio Coding 3
    Commercial name             : Dolby Digital
    Codec ID                    : A_AC3
    Duration                    : 1 h 58 min
    Bit rate mode               : Constant
    Bit rate                    : 448 kb/s
    Channel(s)                  : 6 channels
    Channel layout              : L R C LFE Ls Rs
    Sampling rate               : 48.0 kHz
    Frame rate                  : 31.250 FPS (1536 SPF)
    Compression mode            : Lossy
    Stream size                 : 379 MiB (1%)
    Language                    : English
    Service kind                : Complete Main
    Default                     : No
    Forced                      : No

    Audio #3
    ID                          : 4
    Format                      : MLP FBA 16-ch
    Format/Info                 : Meridian Lossless Packing FBA with 16-channel presentation
    Commercial name             : Dolby TrueHD with Dolby Atmos
    Codec ID                    : A_TRUEHD
    Duration                    : 1 h 58 min
    Bit rate mode               : Variable
    Bit rate                    : 4 218 kb/s
    Maximum bit rate            : 6 912 kb/s
    Channel(s)                  : 8 channels
    Channel layout              : L R C LFE Ls Rs Lb Rb
    Sampling rate               : 48.0 kHz
    Frame rate                  : 1 200.000 FPS (40 SPF)
    Compression mode            : Lossless
    Stream size                 : 3.49 GiB (7%)
    Language                    : English
    Default                     : No
    Forced                      : No
    Number of dynamic objects   : 11
    Bed channel count           : 1 channel
    Bed channel configuration   : LFE

    Text #1
    ID                          : 5
    Format                      : UTF-8
    Codec ID                    : S_TEXT/UTF8
    Codec ID/Info               : UTF-8 Plain Text
    Duration                    : 1 h 57 min
    Bit rate                    : 1 b/s
    Frame rate                  : 0.005 FPS
    Count of elements           : 36
    Stream size                 : 927 Bytes (0%)
    Title                       : Forzados SRT
    Language                    : Spanish
    Default                     : Yes
    Forced                      : Yes

    Text #2
    ID                          : 6
    Format                      : UTF-8
    Codec ID                    : S_TEXT/UTF8
    Codec ID/Info               : UTF-8 Plain Text
    Duration                    : 1 h 57 min
    Bit rate                    : 46 b/s
    Frame rate                  : 0.182 FPS
    Count of elements           : 1280
    Stream size                 : 40.1 KiB (0%)
    Language                    : Spanish
    Default                     : No
    Forced                      : No

    Text #3
    ID                          : 7
    Format                      : PGS
    Muxing mode                 : zlib
    Codec ID                    : S_HDMV/PGS
    Codec ID/Info               : Picture based subtitle format used on BDs/HD-DVDs
    Duration                    : 1 h 54 min
    Bit rate                    : 635 b/s
    Frame rate                  : 0.009 FPS
    Count of elements           : 62
    Stream size                 : 535 KiB (0%)
    Title                       : Forzados PGS
    Language                    : Spanish
    Default                     : No
    Forced                      : No

    Text #4
    ID                          : 8
    Format                      : PGS
    Muxing mode                 : zlib
    Codec ID                    : S_HDMV/PGS
    Codec ID/Info               : Picture based subtitle format used on BDs/HD-DVDs
    Duration                    : 1 h 57 min
    Bit rate                    : 26.5 kb/s
    Frame rate                  : 0.363 FPS
    Count of elements           : 2562
    Stream size                 : 22.3 MiB (0%)
    Language                    : Spanish
    Default                     : No
    Forced                      : No

    Menu
    00:00:00.000                : en:Chapter 1
    00:08:54.742                : en:Chapter 2
    00:19:51.773                : en:Chapter 3
    00:30:01.132                : en:Chapter 4
    00:40:00.106                : en:Chapter 5
    00:50:13.260                : en:Chapter 6
    01:00:49.729                : en:Chapter 7
    01:10:29.600                : en:Chapter 8
    01:18:05.889                : en:Chapter 9
    01:30:12.657                : en:Chapter 10
    01:39:09.026                : en:Chapter 11
    01:47:05.836                : en:Chapter 12

     

  • Peso: 47.3 GiB

Sinopsis

En los años 70, un variopinto grupo de exploradores y soldados es reclutado para viajar a una misteriosa isla del Pacífico. Entre ellos están el capitán James Conrad, el teniente coronel Packard y una foto-periodista. Pero al adentrarse en esta bella pero traicionera isla, los exploradores encontrarán algo absolutamente sorprendente. Sin saberlo, estarán invadiendo los dominios del mítico Kong, el gigante gorila rey de esta isla. Será Marlow, un peculiar habitante del lugar, quien les enseñe los secretos de Isla Calavera, además del resto de seres monstruosos que la habitan.

Ficha técnica

Video trailer de la película

Enlaces de descarga

Rip de Bluray

Descargar Kong Skull Island (2017) REMUX 4K HDR Latino – CMHDD




Aportes de DPeliculasHDmega la pass es:dpeliculashdmega.org Aportes de CinemaniaHD la pass es:cinemaniahdd.com Aportes recientes:cinemaniahdd.net
Guardado en : Acción , Aventura , Fantasía

Películas relacionadas

descargar Kong Skull Island (2017) REMUX 4K HDR Latino – CMHDD 4K HDR 1080p gratis, Kong Skull Island (2017) REMUX 4K HDR Latino – CMHDD 4K HDR mega 1 link, Kong Skull Island (2017) REMUX 4K HDR Latino – CMHDD 4K HDR pelicula completa, descargar Kong Skull Island (2017) REMUX 4K HDR Latino – CMHDD 4K HDR gratis en mega.

Kong Skull Island (2017) REMUX 4K HDR Latino – CMHDD pelicula full hd, Kong Skull Island (2017) REMUX 4K HDR Latino – CMHDD mega latino, Kong Skull Island (2017) REMUX 4K HDR Latino – CMHDD 4k latino, Kong Skull Island (2017) REMUX 4K HDR Latino – CMHDD pelicula completa, Kong Skull Island (2017) REMUX 4K HDR Latino – CMHDD descargar gratis, descargar Kong Skull Island (2017) REMUX 4K HDR Latino – CMHDD pelicula latino, Kong Skull Island (2017) REMUX 4K HDR Latino – CMHDD 1 link mega, Kong Skull Island (2017) REMUX 4K HDR Latino – CMHDD 1 link google drive, Kong Skull Island (2017) REMUX 4K HDR Latino – CMHDD hd 1080p latino.
Comentarios 0