×

¿Problemas para descargar con Mozilla, EDGE? Deshabilita la opción "Abrir vinculos en una pestaña nueva" tal como lo muestra ésta imagen.

Kong: La Isla Calavera (2017) 1080p Latino

293 vistas

Información de Kong: La Isla Calavera (2017) 1080p Latino

Datos de la película

  • Calidad: 1080p
  • Audio: Español Latino AC3 5.1 BLURAY - Ingles AC3 5.1 BLURAY
  • Subtitulos: Español Latino SRT - Ingles SRT
  • Resolución: 1920x804p
  • Formato: MKV
  • Codec: H.264
  • Encoder: CinefiloCool
  • Mediainfo: Clic para Mostrar Datos Ver
  • Kong La Isla Calavera (2017) 1080p Latino-CMHDD.mkv
    Format                      : Matroska
    Format version              : Version 4
    File size                   : 5.28 GiB
    Duration                    : 1 h 58 min
    Overall bit rate            : 6 388 kb/s
    Movie name                  : Kong: Skull Island (2017) CinemaniaHDD.Net
    Encoded date                : UTC 2021-03-29 03:40:08
    Writing application         : mkvmerge v51.0.0 ('I Wish') 64-bit
    Writing library             : libebml v1.4.0 + libmatroska v1.6.2
    Attachments                 : CINEMANIAHD.png

    Video
    ID                          : 1
    Format                      : AVC
    Format/Info                 : Advanced Video Codec
    Format profile              : High@L5
    Format settings             : CABAC / 8 Ref Frames
    Format settings, CABAC      : Yes
    Format settings, Reference  : 8 frames
    Codec ID                    : V_MPEG4/ISO/AVC
    Duration                    : 1 h 58 min
    Bit rate                    : 5 491 kb/s
    Width                       : 1 920 pixels
    Height                      : 804 pixels
    Display aspect ratio        : 2.40:1
    Frame rate mode             : Constant
    Frame rate                  : 23.976 (24000/1001) FPS
    Color space                 : YUV
    Chroma subsampling          : 4:2:0
    Bit depth                   : 8 bits
    Scan type                   : Progressive
    Bits/(Pixel*Frame)          : 0.148
    Stream size                 : 4.54 GiB (86%)
    Title                       : HD1080p [CinemaniaHDD]
    Writing library             : x264 core 158 r2984 3759fcb
    Encoding settings           : cabac=1 / ref=8 / deblock=1:-3:-3 / analyse=0x3:0x133 / me=umh / subme=11 / psy=1 / psy_rd=1.00:0.00 / mixed_ref=1 / me_range=24 / chroma_me=1 / trellis=2 / 8x8dct=1 / cqm=0 / deadzone=21,11 / fast_pskip=0 / chroma_qp_offset=-2 / threads=18 / lookahead_threads=2 / sliced_threads=0 / nr=0 / decimate=0 / interlaced=0 / bluray_compat=0 / constrained_intra=0 / bframes=8 / b_pyramid=2 / b_adapt=2 / b_bias=0 / direct=3 / weightb=1 / open_gop=0 / weightp=2 / keyint=250 / keyint_min=23 / scenecut=40 / intra_refresh=0 / rc_lookahead=60 / rc=crf / mbtree=1 / crf=22.0 / qcomp=0.60 / qpmin=0 / qpmax=29 / qpstep=4 / ip_ratio=1.40 / aq=1:1.00
    Default                     : Yes
    Forced                      : Yes

    Audio #1
    ID                          : 2
    Format                      : AC-3
    Format/Info                 : Audio Coding 3
    Commercial name             : Dolby Digital
    Codec ID                    : A_AC3
    Duration                    : 1 h 58 min
    Bit rate mode               : Constant
    Bit rate                    : 448 kb/s
    Channel(s)                  : 6 channels
    Channel layout              : L R C LFE Ls Rs
    Sampling rate               : 48.0 kHz
    Frame rate                  : 31.250 FPS (1536 SPF)
    Compression mode            : Lossy
    Stream size                 : 379 MiB (7%)
    Title                       : Español Latino [CinemaniaHDD]
    Language                    : Spanish
    Service kind                : Complete Main
    Default                     : Yes
    Forced                      : Yes

    Audio #2
    ID                          : 3
    ID in the original source m : 4352 (0x1100)
    Format                      : AC-3
    Format/Info                 : Audio Coding 3
    Commercial name             : Dolby Digital
    Codec ID                    : A_AC3
    Duration                    : 1 h 58 min
    Bit rate mode               : Constant
    Bit rate                    : 448 kb/s
    Channel(s)                  : 6 channels
    Channel layout              : L R C LFE Ls Rs
    Sampling rate               : 48.0 kHz
    Frame rate                  : 31.250 FPS (1536 SPF)
    Compression mode            : Lossy
    Stream size                 : 379 MiB (7%)
    Title                       : Ingles [CinemaniaHDD]
    Language                    : English
    Service kind                : Complete Main
    Default                     : No
    Forced                      : No
    Original source medium      : Blu-ray

    Text #1
    ID                          : 4
    Format                      : UTF-8
    Codec ID                    : S_TEXT/UTF8
    Codec ID/Info               : UTF-8 Plain Text
    Duration                    : 1 h 54 min
    Bit rate                    : 0 b/s
    Count of elements           : 30
    Stream size                 : 739 Bytes (0%)
    Title                       : Forzados-SRT [CinemaniaHDD]
    Language                    : Spanish
    Default                     : Yes
    Forced                      : Yes

    Text #2
    ID                          : 5
    Format                      : UTF-8
    Codec ID                    : S_TEXT/UTF8
    Codec ID/Info               : UTF-8 Plain Text
    Duration                    : 1 h 57 min
    Bit rate                    : 46 b/s
    Count of elements           : 1282
    Stream size                 : 39.7 KiB (0%)
    Title                       : Español-SRT [CinemaniaHDD]
    Language                    : Spanish
    Default                     : No
    Forced                      : No

    Text #3
    ID                          : 6
    Format                      : UTF-8
    Codec ID                    : S_TEXT/UTF8
    Codec ID/Info               : UTF-8 Plain Text
    Duration                    : 1 h 54 min
    Bit rate                    : 46 b/s
    Count of elements           : 974
    Stream size                 : 39.0 KiB (0%)
    Title                       : Ingles-SRT [CinemaniaHDD]
    Language                    : English
    Default                     : No
    Forced                      : No

    Menu
    00:00:00.000                : en:Chapter 01
    00:08:54.742                : en:Chapter 02
    00:19:51.773                : en:Chapter 03
    00:30:01.132                : en:Chapter 04
    00:40:00.106                : en:Chapter 05
    00:50:13.260                : en:Chapter 06
    01:00:49.729                : en:Chapter 07
    01:10:29.600                : en:Chapter 08
    01:18:05.889                : en:Chapter 09
    01:30:12.657                : en:Chapter 10
    01:39:09.026                : en:Chapter 11
    01:47:05.836                : en:Chapter 12

  • Peso: 5.28 GiB

Sinopsis

Descargar Kong: La Isla Calavera (2017) 1080p Latino. En los años 70, un variopinto grupo de exploradores y soldados es reclutado para viajar a una misteriosa isla del Pacífico. Entre ellos están el capitán James Conrad, el teniente coronel Packard y una foto-periodista. Pero al adentrarse en esta bella pero traicionera isla, los exploradores encontrarán algo absolutamente sorprendente. Sin saberlo, estarán invadiendo los dominios del mítico Kong, el gigante gorila rey de esta isla. Será Marlow, un peculiar habitante del lugar, quien les enseñe los secretos de Isla Calavera, además del resto de seres monstruosos que la habitan.

RESUBIDA NUEVA VERSION!!!

Ficha técnica

Video trailer de la película

Enlaces de descarga

Rip de Bluray

Descargar Kong: La Isla Calavera (2017) 1080p Latino




Aportes de DPeliculasHDmega la pass es:dpeliculashdmega.org Aportes de CinemaniaHD la pass es:cinemaniahdd.com
Guardado en : Acción , Aventura , Fantasía , HD 1080p
Etiquetado en :

Películas relacionadas

  • Tremors (1990) REMUX 4K HDR Latino – CMHDD

    Tremors (1990) REMUX 4K HDR Latino – CMHDD

    1990
    Tremors (1990) REMUX 4K HDR Latino – CMHDD

    1h 35m 1990

    En Perfección, un pequeño pueblo al borde del desierto de Nevada, algo parece suceder debajo de la...

    Director: Susan Bierbaum

    Género: Acción

    Actores: Victor Wong

  • Rainbow (2022) NF WEB-DL 1080p Cast

    Rainbow (2022) NF WEB-DL 1080p Cast

    2022
    Rainbow (2022) NF WEB-DL 1080p Cast

    1h 57m 2022

    Descargar Rainbow (2022) NF WEB-DL 1080p Cast. Una historia contemporánea sobre el paso a la edad adulta...

    Director: Tobias Vergara

    Género: Comedia

    Actores: Wekaforé Jibril

descargar Kong: La Isla Calavera (2017) 1080p Latino 1080p 1080p gratis, Kong: La Isla Calavera (2017) 1080p Latino 1080p mega 1 link, Kong: La Isla Calavera (2017) 1080p Latino 1080p pelicula completa, descargar Kong: La Isla Calavera (2017) 1080p Latino 1080p gratis en mega.

Kong: La Isla Calavera (2017) 1080p Latino pelicula full hd, Kong: La Isla Calavera (2017) 1080p Latino mega latino, Kong: La Isla Calavera (2017) 1080p Latino 4k latino, Kong: La Isla Calavera (2017) 1080p Latino pelicula completa, Kong: La Isla Calavera (2017) 1080p Latino descargar gratis, descargar Kong: La Isla Calavera (2017) 1080p Latino pelicula latino, Kong: La Isla Calavera (2017) 1080p Latino 1 link mega, Kong: La Isla Calavera (2017) 1080p Latino 1 link google drive, Kong: La Isla Calavera (2017) 1080p Latino hd 1080p latino.
Comentarios 0