×

¿Problemas para descargar con Mozilla, EDGE? Deshabilita la opción "Abrir vinculos en una pestaña nueva" tal como lo muestra ésta imagen.

Knock at the Cabin (2023) AMZN 4K-HDR WEB-DL 2160p Latino

365 vistas

Información de Knock at the Cabin (2023) AMZN 4K-HDR WEB-DL 2160p Latino

Datos de la película

  • Calidad: 4K HDR
  • Audio: Español Latino AC3 5.1 WEB-DL - Ingles AC3 5.1 WEB-DL
  • Subtitulos: Español Latino SRT- FORZADOS SRT
  • Resolución: 3840x1600
  • Formato: MKV
  • Codec: HEVC
  • Encoder: cinemaniahdd
  • Mediainfo: Clic para Mostrar Datos Ver
  • Knock at the Cabin (2023) AMZN 4K-HDR WEB-DL 2160p Latino [CNMNHDD].mkv
    Format                      : Matroska
    Format version              : Version 4
    File size                   : 11.1 GiB
    Duration                    : 1 h 40 min
    Overall bit rate            : 15.9 Mb/s
    Movie name                  : Llaman a la puerta (2023) - HDR [2160p] - CinemaniaHDD.Net
    Encoded date                : UTC 2023-02-21 17:23:08
    Writing application         : mkvmerge v56.1.0 ('My Friend') 64-bit
    Writing library             : libebml v1.4.2 + libmatroska v1.6.4

    Video
    ID                          : 1
    Format                      : HEVC
    Format/Info                 : High Efficiency Video Coding
    Format profile              : Main 10@L5@Main
    HDR format                  : SMPTE ST 2094 App 4, Version 1, HDR10+ Profile B compatible
    Codec ID                    : V_MPEGH/ISO/HEVC
    Duration                    : 1 h 40 min
    Bit rate                    : 14.8 Mb/s
    Width                       : 3 840 pixels
    Height                      : 1 600 pixels
    Display aspect ratio        : 2.40:1
    Frame rate mode             : Constant
    Frame rate                  : 23.976 (24000/1001) FPS
    Color space                 : YUV
    Chroma subsampling          : 4:2:0
    Bit depth                   : 10 bits
    Bits/(Pixel*Frame)          : 0.100
    Stream size                 : 10.3 GiB (93%)
    Title                       : CinemaniaHDD
    Default                     : Yes
    Forced                      : No
    Color range                 : Limited
    Color primaries             : BT.2020
    Transfer characteristics    : PQ
    Matrix coefficients         : BT.2020 non-constant
    Mastering display color pri : Display P3
    Mastering display luminance : min: 0.0001 cd/m2, max: 1000 cd/m2
    Maximum Content Light Level : 95 cd/m2
    Maximum Frame-Average Light : 56 cd/m2

    Audio #1
    ID                          : 2
    Format                      : AC-3
    Format/Info                 : Audio Coding 3
    Commercial name             : Dolby Digital
    Codec ID                    : A_AC3
    Duration                    : 1 h 40 min
    Bit rate mode               : Constant
    Bit rate                    : 384 kb/s
    Channel(s)                  : 6 channels
    Channel layout              : L R C LFE Ls Rs
    Sampling rate               : 48.0 kHz
    Frame rate                  : 31.250 FPS (1536 SPF)
    Compression mode            : Lossy
    Stream size                 : 275 MiB (2%)
    Title                       : Español latino [CinemaniaHDD]
    Language                    : Spanish
    Service kind                : Complete Main
    Default                     : Yes
    Forced                      : No

    Audio #2
    ID                          : 3
    Format                      : E-AC-3 JOC
    Format/Info                 : Enhanced AC-3 with Joint Object Coding
    Commercial name             : Dolby Digital Plus with Dolby Atmos
    Codec ID                    : A_EAC3
    Duration                    : 1 h 40 min
    Bit rate mode               : Constant
    Bit rate                    : 768 kb/s
    Channel(s)                  : 6 channels
    Channel layout              : L R C LFE Ls Rs
    Sampling rate               : 48.0 kHz
    Frame rate                  : 31.250 FPS (1536 SPF)
    Compression mode            : Lossy
    Stream size                 : 550 MiB (5%)
    Title                       : Inglés [CinemaniaHDD]
    Language                    : English
    Service kind                : Complete Main
    Default                     : No
    Forced                      : No
    Complexity index            : 16
    Number of dynamic objects   : 15
    Bed channel count           : 1 channel
    Bed channel configuration   : LFE

    Text #1
    ID                          : 4
    Format                      : UTF-8
    Codec ID                    : S_TEXT/UTF8
    Codec ID/Info               : UTF-8 Plain Text
    Duration                    : 1 h 39 min
    Bit rate                    : 0 b/s
    Count of elements           : 9
    Stream size                 : 232 Bytes (0%)
    Title                       : Forzados [CinemaniaHDD]
    Language                    : Spanish
    Default                     : Yes
    Forced                      : Yes

    Text #2
    ID                          : 5
    Format                      : UTF-8
    Codec ID                    : S_TEXT/UTF8
    Codec ID/Info               : UTF-8 Plain Text
    Duration                    : 1 h 39 min
    Bit rate                    : 51 b/s
    Count of elements           : 1177
    Stream size                 : 37.4 KiB (0%)
    Title                       : Español latino [CinemaniaHDD]
    Language                    : Spanish
    Default                     : No
    Forced                      : No

    Text #3
    ID                          : 6
    Format                      : UTF-8
    Codec ID                    : S_TEXT/UTF8
    Codec ID/Info               : UTF-8 Plain Text
    Duration                    : 1 h 40 min
    Bit rate                    : 86 b/s
    Count of elements           : 1684
    Stream size                 : 63.5 KiB (0%)
    Title                       : Inglés [CinemaniaHDD]
    Language                    : English
    Default                     : No
    Forced                      : No

     

  • Peso: 11.1 GiB

Sinopsis

La cabaña de una pareja y su hija es invadida por extraños que los toman cautivos y luego exponen su simple propuesta: El mundo está llegando a su fin. Todos lo han visto. Y solo un terrible sacrificio de la familia puede detenerlo.

Ficha técnica

Video trailer de la película

Enlaces de descarga

Rip de Bluray

Descargar Knock at the Cabin (2023) AMZN 4K-HDR WEB-DL 2160p Latino




Aportes de DPeliculasHDmega la pass es:dpeliculashdmega.org Aportes de CinemaniaHD la pass es:cinemaniahdd.com Aportes recientes:cinemaniahdd.net
Guardado en : 4K HDR , 4K UHD , Misterio , Suspenso , Terror

Películas relacionadas

descargar Knock at the Cabin (2023) AMZN 4K-HDR WEB-DL 2160p Latino 4K HDR 1080p gratis, Knock at the Cabin (2023) AMZN 4K-HDR WEB-DL 2160p Latino 4K HDR mega 1 link, Knock at the Cabin (2023) AMZN 4K-HDR WEB-DL 2160p Latino 4K HDR pelicula completa, descargar Knock at the Cabin (2023) AMZN 4K-HDR WEB-DL 2160p Latino 4K HDR gratis en mega.

Knock at the Cabin (2023) AMZN 4K-HDR WEB-DL 2160p Latino pelicula full hd, Knock at the Cabin (2023) AMZN 4K-HDR WEB-DL 2160p Latino mega latino, Knock at the Cabin (2023) AMZN 4K-HDR WEB-DL 2160p Latino 4k latino, Knock at the Cabin (2023) AMZN 4K-HDR WEB-DL 2160p Latino pelicula completa, Knock at the Cabin (2023) AMZN 4K-HDR WEB-DL 2160p Latino descargar gratis, descargar Knock at the Cabin (2023) AMZN 4K-HDR WEB-DL 2160p Latino pelicula latino, Knock at the Cabin (2023) AMZN 4K-HDR WEB-DL 2160p Latino 1 link mega, Knock at the Cabin (2023) AMZN 4K-HDR WEB-DL 2160p Latino 1 link google drive, Knock at the Cabin (2023) AMZN 4K-HDR WEB-DL 2160p Latino hd 1080p latino.
Comentarios 0