×

¿Problemas para descargar con Mozilla, EDGE? Deshabilita la opción "Abrir vinculos en una pestaña nueva" tal como lo muestra ésta imagen.

Knives Out (2019) WEB-DL 1080p Latino

2.063 vistas

Información de Knives Out (2019) WEB-DL 1080p Latino

Datos de la película

  • Calidad: WEBDL
  • Audio: Español Latino AC3 2.0 iTunes - Ingles AC3 5.1 iTunes
  • Subtitulos: Español Latino SRT- FORZADOS SRT
  • Resolución: 1920x1080
  • Formato: MKV
  • Codec: H.264
  • Encoder: cinemaniahdd
  • Mediainfo: Clic para Mostrar Datos Ver
  • Knives Out (2019) WEB-DL 1080p Latino.mkv
    Format                      : Matroska
    Format version              : Version 4
    File size                   : 5.54 GiB
    Duration                    : 2 h 10 min
    Overall bit rate            : 6 102 kb/s
    Movie name                  : Knives Out (2019) - CinemaniaHDD.Net
    Encoded date                : UTC 2020-02-07 06:11:38
    Writing application         : mkvmerge v42.0.0 ('Overtime') 64-bit
    Writing library             : libebml v1.3.10 + libmatroska v1.5.2

    Video
    ID                          : 1
    Format                      : AVC
    Format/Info                 : Advanced Video Codec
    Format profile              : High@L4
    Format settings             : CABAC / 2 Ref Frames
    Format settings, CABAC      : Yes
    Format settings, ReFrames   : 2 frames
    Codec ID                    : V_MPEG4/ISO/AVC
    Duration                    : 2 h 10 min
    Bit rate                    : 5 459 kb/s
    Width                       : 1 920 pixels
    Height                      : 1 080 pixels
    Display aspect ratio        : 16:9
    Frame rate mode             : Constant
    Frame rate                  : 23.976 (24000/1001) FPS
    Color space                 : YUV
    Chroma subsampling          : 4:2:0
    Bit depth                   : 8 bits
    Scan type                   : Progressive
    Bits/(Pixel*Frame)          : 0.110
    Stream size                 : 4.96 GiB (89%)
    Title                       : CinemaniaHDD
    Writing library             : x264 core 155 r2901 7d0ff22
    Default                     : Yes
    Forced                      : No
    Color range                 : Limited
    Color primaries             : BT.709
    Transfer characteristics    : BT.709
    Matrix coefficients         : BT.709

    Audio #1
    ID                          : 2
    Format                      : AC-3
    Format/Info                 : Audio Coding 3
    Commercial name             : Dolby Digital
    Codec ID                    : A_AC3
    Duration                    : 2 h 10 min
    Bit rate mode               : Constant
    Bit rate                    : 256 kb/s
    Channel(s)                  : 2 channels
    Channel layout              : L R
    Sampling rate               : 48.0 kHz
    Frame rate                  : 31.250 FPS (1536 SPF)
    Bit depth                   : 16 bits
    Compression mode            : Lossy
    Stream size                 : 238 MiB (4%)
    Title                       : Español latino [CinemaniaHDD]
    Language                    : Spanish
    Service kind                : Complete Main
    Default                     : Yes
    Forced                      : No

    Audio #2
    ID                          : 3
    Format                      : AC-3
    Format/Info                 : Audio Coding 3
    Commercial name             : Dolby Digital
    Codec ID                    : A_AC3
    Duration                    : 2 h 10 min
    Bit rate mode               : Constant
    Bit rate                    : 384 kb/s
    Channel(s)                  : 6 channels
    Channel layout              : L R C LFE Ls Rs
    Sampling rate               : 48.0 kHz
    Frame rate                  : 31.250 FPS (1536 SPF)
    Bit depth                   : 16 bits
    Compression mode            : Lossy
    Stream size                 : 357 MiB (6%)
    Title                       : Inglés [CinemaniaHDD]
    Language                    : English
    Service kind                : Complete Main
    Default                     : No
    Forced                      : No

    Text #1
    ID                          : 4
    Format                      : UTF-8
    Codec ID                    : S_TEXT/UTF8
    Codec ID/Info               : UTF-8 Plain Text
    Duration                    : 2 h 4 min
    Bit rate                    : 0 b/s
    Count of elements           : 8
    Stream size                 : 204 Bytes (0%)
    Title                       : Forzados [CinemaniaHDD]
    Language                    : Spanish
    Default                     : Yes
    Forced                      : Yes

    Text #2
    ID                          : 5
    Format                      : UTF-8
    Codec ID                    : S_TEXT/UTF8
    Codec ID/Info               : UTF-8 Plain Text
    Duration                    : 2 h 4 min
    Bit rate                    : 77 b/s
    Count of elements           : 1992
    Stream size                 : 70.1 KiB (0%)
    Title                       : Español latino [CinemaniaHDD]
    Language                    : Spanish
    Default                     : No
    Forced                      : No

     

  • Peso: 5.54 GiB

Sinopsis

Cuando el renombrado novelista de misterio Harlan Thrombey es encontrado muerto en su mansión justo después de su 85 cumpleaños, el inquisitivo y cortés detective Benoit Blanc es misteriosamente reclutado para investigar. Se moverá entre una red de pistas falsas y mentiras interesadas para tratar de descubrir la verdad tras la prematura muerte del escritor.

Ficha técnica

Video trailer de la película

Enlaces de descarga

Rip de Bluray

Descargar Knives Out (2019) WEB-DL 1080p Latino




Aportes de DPeliculasHDmega la pass es:dpeliculashdmega.org Aportes de CinemaniaHD la pass es:cinemaniahdd.com
Guardado en : Comedia , Crimen , Drama , Misterio , Suspenso

Películas relacionadas

descargar Knives Out (2019) WEB-DL 1080p Latino WEBDL 1080p gratis, Knives Out (2019) WEB-DL 1080p Latino WEBDL mega 1 link, Knives Out (2019) WEB-DL 1080p Latino WEBDL pelicula completa, descargar Knives Out (2019) WEB-DL 1080p Latino WEBDL gratis en mega.

Knives Out (2019) WEB-DL 1080p Latino pelicula full hd, Knives Out (2019) WEB-DL 1080p Latino mega latino, Knives Out (2019) WEB-DL 1080p Latino 4k latino, Knives Out (2019) WEB-DL 1080p Latino pelicula completa, Knives Out (2019) WEB-DL 1080p Latino descargar gratis, descargar Knives Out (2019) WEB-DL 1080p Latino pelicula latino, Knives Out (2019) WEB-DL 1080p Latino 1 link mega, Knives Out (2019) WEB-DL 1080p Latino 1 link google drive, Knives Out (2019) WEB-DL 1080p Latino hd 1080p latino.
Comentarios 0