×

¿Problemas para descargar con Mozilla, EDGE? Deshabilita la opción "Abrir vinculos en una pestaña nueva" tal como lo muestra ésta imagen.

Knight and Day (2010) REMUX 1080p Latino – CMHDD

115 vistas

Información de Knight and Day (2010) REMUX 1080p Latino – CMHDD

Datos de la película

  • Calidad: Full 1080p
  • Audio: Español Latino AC3 5.1 BLURAY - Ingles DTS 5.1 BLURAY
  • Subtitulos: Español Latino PGS
  • Resolución: 1920x1080p
  • Formato: MKV
  • Codec: H.264
  • Encoder: Dracarys
  • Mediainfo: Clic para Mostrar Datos Ver
  • Format                      : Matroska
    Format version              : Version 4
    File size                   : 18.8 GiB
    Duration                    : 1 h 49 min
    Overall bit rate mode       : Variable
    Overall bit rate            : 24.6 Mb/s
    Movie name                  : Knight and Day (2010) REMUX 1080p Latino - CMHDD
    Encoded date                : UTC 2023-09-03 17:09:21
    Writing application         : mkvmerge v47.0.0 ('Black Flag') 64-bit
    Writing library             : libebml v1.3.10 + libmatroska v1.5.2
    Cover                       : Yes
    Attachments                 : cover.jpg

    Video
    ID                          : 1
    ID in the original source m : 4113 (0x1011)
    Format                      : AVC
    Format/Info                 : Advanced Video Codec
    Format profile              : High@L4.1
    Format settings             : CABAC / 4 Ref Frames
    Format settings, CABAC      : Yes
    Format settings, Reference  : 4 frames
    Format settings, GOP        : M=1, N=12
    Codec ID                    : V_MPEG4/ISO/AVC
    Duration                    : 1 h 49 min
    Bit rate mode               : Variable
    Bit rate                    : 20.1 Mb/s
    Maximum bit rate            : 39.0 Mb/s
    Width                       : 1 920 pixels
    Height                      : 1 080 pixels
    Display aspect ratio        : 16:9
    Frame rate mode             : Constant
    Frame rate                  : 23.976 (24000/1001) FPS
    Color space                 : YUV
    Chroma subsampling          : 4:2:0
    Bit depth                   : 8 bits
    Scan type                   : Progressive
    Bits/(Pixel*Frame)          : 0.405
    Stream size                 : 15.4 GiB (82%)
    Default                     : Yes
    Forced                      : No
    Color range                 : Limited
    Color primaries             : BT.709
    Transfer characteristics    : BT.709
    Matrix coefficients         : BT.709
    Original source medium      : Blu-ray

    Audio #1
    ID                          : 2
    ID in the original source m : 4352 (0x1100)
    Format                      : DTS XLL
    Format/Info                 : Digital Theater Systems
    Commercial name             : DTS-HD Master Audio
    Codec ID                    : A_DTS
    Duration                    : 1 h 49 min
    Bit rate mode               : Variable
    Bit rate                    : 3 959 kb/s
    Channel(s)                  : 6 channels
    Channel layout              : C L R Ls Rs LFE
    Sampling rate               : 48.0 kHz
    Frame rate                  : 93.750 FPS (512 SPF)
    Bit depth                   : 24 bits
    Compression mode            : Lossless
    Stream size                 : 3.03 GiB (16%)
    Language                    : English
    Default                     : No
    Forced                      : No
    Original source medium      : Blu-ray

    Audio #2
    ID                          : 3
    ID in the original source m : 4354 (0x1102)
    Format                      : AC-3
    Format/Info                 : Audio Coding 3
    Commercial name             : Dolby Digital
    Codec ID                    : A_AC3
    Duration                    : 1 h 49 min
    Bit rate mode               : Constant
    Bit rate                    : 448 kb/s
    Channel(s)                  : 6 channels
    Channel layout              : L R C LFE Ls Rs
    Sampling rate               : 48.0 kHz
    Frame rate                  : 31.250 FPS (1536 SPF)
    Compression mode            : Lossy
    Stream size                 : 351 MiB (2%)
    Language                    : Spanish
    Service kind                : Complete Main
    Default                     : Yes
    Forced                      : No
    Original source medium      : Blu-ray

    Text
    ID                          : 4
    ID in the original source m : 4610 (0x1202)
    Format                      : PGS
    Muxing mode                 : zlib
    Codec ID                    : S_HDMV/PGS
    Codec ID/Info               : Picture based subtitle format used on BDs/HD-DVDs
    Duration                    : 1 h 48 min
    Bit rate                    : 30.3 kb/s
    Frame rate                  : 0.391 FPS
    Count of elements           : 2550
    Stream size                 : 23.5 MiB (0%)
    Language                    : Spanish
    Default                     : No
    Forced                      : No
    Original source medium      : Blu-ray

    Menu
    00:00:00.000                : en:Capítulo 01
    00:04:19.717                : en:Capítulo 02
    00:06:33.059                : en:Capítulo 03
    00:10:39.263                : en:Capítulo 04
    00:13:06.327                : en:Capítulo 05
    00:17:56.158                : en:Capítulo 06
    00:20:19.426                : en:Capítulo 07
    00:22:55.374                : en:Capítulo 08
    00:30:25.615                : en:Capítulo 09
    00:35:27.625                : en:Capítulo 10
    00:38:32.601                : en:Capítulo 11
    00:43:13.132                : en:Capítulo 12
    00:49:45.607                : en:Capítulo 13
    00:53:40.967                : en:Capítulo 14
    00:56:42.190                : en:Capítulo 15
    00:59:54.424                : en:Capítulo 16
    01:03:46.197                : en:Capítulo 17
    01:08:45.746                : en:Capítulo 18
    01:13:02.169                : en:Capítulo 19
    01:17:39.488                : en:Capítulo 20
    01:19:45.989                : en:Capítulo 21
    01:24:02.871                : en:Capítulo 22
    01:28:29.012                : en:Capítulo 23
    01:31:44.624                : en:Capítulo 24
    01:35:04.281                : en:Capítulo 25
    01:37:55.035                : en:Capítulo 26
    01:40:43.829                : en:Capítulo 27
    01:44:14.081                : en:Capítulo 28

  • Peso: 18.8 GiB

Sinopsis

La historia gira en torno a las aventuras de una pareja, una mujer normal que sólo quiere acudir a una boda, y un hombre que parece un agente secreto, a lo largo y ancho del planeta. Ambos se encuentran repetidas veces a lo largo de diversos lugares, condenados a estar juntos en una serie de persecuciones donde nadie es quien parece ser

Ficha técnica

Video trailer de la película

Enlaces de descarga

Rip de Bluray

Descargar Knight and Day (2010) REMUX 1080p Latino – CMHDD


Aportes de DPeliculasHDmega la pass es:dpeliculashdmega.org Aportes de CinemaniaHD la pass es:cinemaniahdd.com Aportes recientes:cinemaniahdd.net
Guardado en : Acción , Comedia

Películas relacionadas

descargar Knight and Day (2010) REMUX 1080p Latino – CMHDD Full 1080p 1080p gratis, Knight and Day (2010) REMUX 1080p Latino – CMHDD Full 1080p mega 1 link, Knight and Day (2010) REMUX 1080p Latino – CMHDD Full 1080p pelicula completa, descargar Knight and Day (2010) REMUX 1080p Latino – CMHDD Full 1080p gratis en mega.

Knight and Day (2010) REMUX 1080p Latino – CMHDD pelicula full hd, Knight and Day (2010) REMUX 1080p Latino – CMHDD mega latino, Knight and Day (2010) REMUX 1080p Latino – CMHDD 4k latino, Knight and Day (2010) REMUX 1080p Latino – CMHDD pelicula completa, Knight and Day (2010) REMUX 1080p Latino – CMHDD descargar gratis, descargar Knight and Day (2010) REMUX 1080p Latino – CMHDD pelicula latino, Knight and Day (2010) REMUX 1080p Latino – CMHDD 1 link mega, Knight and Day (2010) REMUX 1080p Latino – CMHDD 1 link google drive, Knight and Day (2010) REMUX 1080p Latino – CMHDD hd 1080p latino.
Comentarios 0