×

¿Problemas para descargar con Mozilla, EDGE? Deshabilita la opción "Abrir vinculos en una pestaña nueva" tal como lo muestra ésta imagen.

Kleo (2022) Temporada 1 NF WEB-DL 1080p Latino

87 vistas

Información de Kleo (2022) Temporada 1 NF WEB-DL 1080p Latino

Datos de la película

  • Calidad: WEBDL
  • Audio: Se especifica abajo de la Sinopsis
  • Subtitulos: Español Latino SRT- FORZADOS SRT
  • Resolución: 1920x1080p
  • Formato: MKV
  • Codec: H.264
  • Encoder: Melkor
  • Mediainfo: Clic para Mostrar Datos Ver
  • Kleo S01E01 (2022) NF WebDL 1080p Latino.mkv
    Format                      : Matroska
    Format version              : Version 4
    File size                   : 3.28 GiB
    Duration                    : 53 min 56 s
    Overall bit rate mode       : Variable
    Overall bit rate            : 8 705 kb/s
    Movie name                  : Kleo S01E01 CinemaniaHDD.Net
    Encoded date                : UTC 2022-08-24 20:34:20
    Writing application         : mkvmerge v56.1.0 ('My Friend') 64-bit
    Writing library             : libebml v1.4.2 + libmatroska v1.6.4
    Attachments                 : CINEMANIAHD.png

    Video
    ID                          : 1
    Format                      : AVC
    Format/Info                 : Advanced Video Codec
    Format profile              : High@L4
    Format settings             : CABAC / 4 Ref Frames
    Format settings, CABAC      : Yes
    Format settings, Reference  : 4 frames
    Codec ID                    : V_MPEG4/ISO/AVC
    Duration                    : 53 min 56 s
    Bit rate mode               : Variable
    Bit rate                    : 7 296 kb/s
    Maximum bit rate            : 20.0 Mb/s
    Width                       : 1 920 pixels
    Height                      : 1 080 pixels
    Display aspect ratio        : 16:9
    Frame rate mode             : Constant
    Frame rate                  : 24.000 FPS
    Color space                 : YUV
    Chroma subsampling          : 4:2:0
    Bit depth                   : 8 bits
    Scan type                   : Progressive
    Bits/(Pixel*Frame)          : 0.147
    Stream size                 : 2.75 GiB (84%)
    Title                       : WEB HD1080p [CinemaniaHDD]
    Writing library             : x264 core 148 r2727 7d026e8
    Encoding settings           : cabac=1 / ref=4 / deblock=1:0:0 / analyse=0x3:0x111 / me=umh / subme=10 / psy=1 / psy_rd=1.00:0.00 / mixed_ref=1 / me_range=120 / chroma_me=1 / trellis=2 / 8x8dct=1 / cqm=0 / deadzone=21,11 / fast_pskip=1 / chroma_qp_offset=-2 / threads=8 / lookahead_threads=2 / sliced_threads=0 / nr=0 / decimate=1 / interlaced=0 / bluray_compat=0 / stitchable=1 / constrained_intra=0 / bframes=16 / b_pyramid=2 / b_adapt=2 / b_bias=0 / direct=3 / weightb=1 / open_gop=0 / weightp=2 / keyint=240 / keyint_min=121 / scenecut=0 / intra_refresh=0 / rc_lookahead=240 / rc=crf / mbtree=1 / crf=21.0 / qcomp=0.50 / qpmin=6 / qpmax=51 / qpstep=4 / vbv_maxrate=20000 / vbv_bufsize=25000 / crf_max=0.0 / nal_hrd=vbr / filler=0 / ip_ratio=1.40 / aq=1:0.80
    Language                    : German
    Default                     : Yes
    Forced                      : Yes

    Audio #1
    ID                          : 2
    Format                      : E-AC-3
    Format/Info                 : Enhanced AC-3
    Commercial name             : Dolby Digital Plus
    Codec ID                    : A_EAC3
    Duration                    : 53 min 56 s
    Bit rate mode               : Constant
    Bit rate                    : 640 kb/s
    Channel(s)                  : 6 channels
    Channel layout              : L R C LFE Ls Rs
    Sampling rate               : 48.0 kHz
    Frame rate                  : 31.250 FPS (1536 SPF)
    Compression mode            : Lossy
    Stream size                 : 247 MiB (7%)
    Title                       : Español Latino [CinemaniaHDD]
    Language                    : Spanish
    Service kind                : Complete Main
    Default                     : Yes
    Forced                      : Yes

    Audio #2
    ID                          : 3
    Format                      : E-AC-3 JOC
    Format/Info                 : Enhanced AC-3 with Joint Object Coding
    Commercial name             : Dolby Digital Plus with Dolby Atmos
    Codec ID                    : A_EAC3
    Duration                    : 53 min 56 s
    Bit rate mode               : Constant
    Bit rate                    : 768 kb/s
    Channel(s)                  : 6 channels
    Channel layout              : L R C LFE Ls Rs
    Sampling rate               : 48.0 kHz
    Frame rate                  : 31.250 FPS (1536 SPF)
    Compression mode            : Lossy
    Stream size                 : 296 MiB (9%)
    Title                       : Aleman [CinemaniaHDD]
    Language                    : German
    Service kind                : Complete Main
    Default                     : No
    Forced                      : No
    Complexity index            : 16
    Number of dynamic objects   : 15
    Bed channel count           : 1 channel
    Bed channel configuration   : LFE

    Text #1
    ID                          : 4
    Format                      : UTF-8
    Codec ID                    : S_TEXT/UTF8
    Codec ID/Info               : UTF-8 Plain Text
    Duration                    : 52 min 7 s
    Bit rate                    : 2 b/s
    Count of elements           : 29
    Stream size                 : 788 Bytes (0%)
    Title                       : Forzados-SRT [CinemaniaHDD]
    Language                    : Spanish
    Default                     : Yes
    Forced                      : Yes

    Text #2
    ID                          : 5
    Format                      : UTF-8
    Codec ID                    : S_TEXT/UTF8
    Codec ID/Info               : UTF-8 Plain Text
    Duration                    : 52 min 7 s
    Bit rate                    : 38 b/s
    Count of elements           : 515
    Stream size                 : 14.9 KiB (0%)
    Title                       : Español-SRT [CinemaniaHDD]
    Language                    : Spanish
    Default                     : No
    Forced                      : No

    Text #3
    ID                          : 6
    Format                      : UTF-8
    Codec ID                    : S_TEXT/UTF8
    Codec ID/Info               : UTF-8 Plain Text
    Duration                    : 48 min 38 s
    Bit rate                    : 49 b/s
    Count of elements           : 506
    Stream size                 : 17.5 KiB (0%)
    Title                       : Aleman-SRT [CinemaniaHDD]
    Language                    : German
    Default                     : No
    Forced                      : No

  • Peso: 3.1 GiB Aprox. C/U -- 24.5 GiB -- 8 Chapters

Sinopsis

Descargar Kleo (2022) Temporada 1 NF WEB-DL 1080p Latino. Tras la caída del Muro de Berlín, una peligrosa exespía queda libre y se embarca en una ola de venganza contra las personas que conspiraron para traicionarla.

Español Latino EAC3 5.1 NF – Aleman EAC3 JOC 5.1 NF

Ficha técnica

Video trailer de la película

Enlaces de descarga

Rip de Bluray

Descargar Kleo (2022) Temporada 1 NF WEB-DL 1080p Latino




Aportes de DPeliculasHDmega la pass es:dpeliculashdmega.org Aportes de CinemaniaHD la pass es:cinemaniahdd.com
Guardado en : Action & Adventure , Drama , Netflix , Series

Películas relacionadas

  • Paradise Highway (2022) HD 1080p Latino

    Paradise Highway (2022) HD 1080p Latino

    2022
    Paradise Highway (2022) HD 1080p Latino

    1h 55m 2022

    Descargar Paradise Highway (2022) HD 1080p Latino. Un camionero se ha visto obligado a pasar de contrabando...

    Director: Anna Gutto

    Género: Crimen

    Actores: Xavier Scott Evans

  • Paradise Highway (2022) PLACEBO Full HD 1080p Latino

    Paradise Highway (2022) PLACEBO Full HD 1080p Latino

    2022
    Paradise Highway (2022) PLACEBO Full HD 1080p Latino

    1h 55m 2022

    Descargar Paradise Highway (2022) PLACEBO Full HD 1080p Latino. Un camionero se ha visto obligado a pasar...

    Director: Anna Gutto

    Género: Crimen

    Actores: Xavier Scott Evans

  • Paradise Highway (2022) REMUX 1080p Latino

    Paradise Highway (2022) REMUX 1080p Latino

    2022
    Paradise Highway (2022) REMUX 1080p Latino

    1h 55m 2022

    Descargar Paradise Highway (2022) REMUX 1080p Latino. Un camionero se ha visto obligado a pasar de contrabando...

    Director: Anna Gutto

    Género: Crimen

    Actores: Xavier Scott Evans

descargar Kleo (2022) Temporada 1 NF WEB-DL 1080p Latino WEBDL 1080p gratis, Kleo (2022) Temporada 1 NF WEB-DL 1080p Latino WEBDL mega 1 link, Kleo (2022) Temporada 1 NF WEB-DL 1080p Latino WEBDL serie completa, descargar Kleo (2022) Temporada 1 NF WEB-DL 1080p Latino WEBDL gratis en mega.

Kleo (2022) Temporada 1 NF WEB-DL 1080p Latino pelicula full hd, Kleo (2022) Temporada 1 NF WEB-DL 1080p Latino mega latino, Kleo (2022) Temporada 1 NF WEB-DL 1080p Latino 4k latino, Kleo (2022) Temporada 1 NF WEB-DL 1080p Latino pelicula completa, Kleo (2022) Temporada 1 NF WEB-DL 1080p Latino descargar gratis, descargar Kleo (2022) Temporada 1 NF WEB-DL 1080p Latino pelicula latino, Kleo (2022) Temporada 1 NF WEB-DL 1080p Latino 1 link mega, Kleo (2022) Temporada 1 NF WEB-DL 1080p Latino 1 link google drive, Kleo (2022) Temporada 1 NF WEB-DL 1080p Latino hd 1080p latino.
Comentarios 0