×

¿Problemas para descargar con Mozilla, EDGE? Deshabilita la opción "Abrir vinculos en una pestaña nueva" tal como lo muestra ésta imagen.

Kiss the Girls (1997) REMUX 1080p Latino – CMHDD

240 vistas

Información de Kiss the Girls (1997) REMUX 1080p Latino – CMHDD

Datos de la película

  • Calidad: Full 1080p
  • Audio: Español Latino AC3 2.0 BLURAY - Ingles DTS 5.1 BLURAY
  • Subtitulos: Español Latino PGS
  • Resolución: 1920x1080p
  • Formato: MKV
  • Codec: H.264
  • Encoder: Dracarys
  • Mediainfo: Clic para Mostrar Datos Ver
  • Format                      : Matroska
    Format version              : Version 4
    File size                   : 30.7 GiB
    Duration                    : 1 h 55 min
    Overall bit rate mode       : Variable
    Overall bit rate            : 38.0 Mb/s
    Movie name                  : Kiss the Girls (1997) REMUX 1080p Latino - CMHDD
    Encoded date                : UTC 2021-07-20 22:19:07
    Writing application         : mkvmerge v56.1.0 ('My Friend') 64-bit
    Writing library             : libebml v1.4.2 + libmatroska v1.6.4
    Cover                       : Yes
    Attachments                 : cover.jpg

    Video
    ID                          : 1
    ID in the original source m : 4113 (0x1011)
    Format                      : AVC
    Format/Info                 : Advanced Video Codec
    Format profile              : High@L4.1
    Format settings             : CABAC / 4 Ref Frames
    Format settings, CABAC      : Yes
    Format settings, Reference  : 4 frames
    Codec ID                    : V_MPEG4/ISO/AVC
    Duration                    : 1 h 55 min
    Bit rate mode               : Variable
    Bit rate                    : 33.8 Mb/s
    Maximum bit rate            : 36.0 Mb/s
    Width                       : 1 920 pixels
    Height                      : 1 080 pixels
    Display aspect ratio        : 16:9
    Frame rate mode             : Constant
    Frame rate                  : 23.976 (24000/1001) FPS
    Color space                 : YUV
    Chroma subsampling          : 4:2:0
    Bit depth                   : 8 bits
    Scan type                   : Progressive
    Bits/(Pixel*Frame)          : 0.680
    Stream size                 : 27.3 GiB (89%)
    Default                     : Yes
    Forced                      : No
    Original source medium      : Blu-ray

    Audio #1
    ID                          : 2
    ID in the original source m : 4352 (0x1100)
    Format                      : DTS XLL
    Format/Info                 : Digital Theater Systems
    Commercial name             : DTS-HD Master Audio
    Codec ID                    : A_DTS
    Duration                    : 1 h 55 min
    Bit rate mode               : Variable
    Bit rate                    : 4 015 kb/s
    Channel(s)                  : 6 channels
    Channel layout              : C L R Ls Rs LFE
    Sampling rate               : 48.0 kHz
    Frame rate                  : 93.750 FPS (512 SPF)
    Bit depth                   : 24 bits
    Compression mode            : Lossless
    Stream size                 : 3.24 GiB (11%)
    Language                    : English
    Default                     : No
    Forced                      : No
    Original source medium      : Blu-ray

    Audio #2
    ID                          : 3
    ID in the original source m : 4355 (0x1103)
    Format                      : AC-3
    Format/Info                 : Audio Coding 3
    Commercial name             : Dolby Digital
    Codec ID                    : A_AC3
    Duration                    : 1 h 55 min
    Bit rate mode               : Constant
    Bit rate                    : 224 kb/s
    Channel(s)                  : 2 channels
    Channel layout              : L R
    Sampling rate               : 48.0 kHz
    Frame rate                  : 31.250 FPS (1536 SPF)
    Compression mode            : Lossy
    Stream size                 : 185 MiB (1%)
    Language                    : Spanish
    Service kind                : Complete Main
    Default                     : Yes
    Forced                      : No
    Original source medium      : Blu-ray

    Text
    ID                          : 4
    ID in the original source m : 4613 (0x1205)
    Format                      : PGS
    Muxing mode                 : zlib
    Codec ID                    : S_HDMV/PGS
    Codec ID/Info               : Picture based subtitle format used on BDs/HD-DVDs
    Duration                    : 1 h 55 min
    Bit rate                    : 29.1 kb/s
    Count of elements           : 2320
    Stream size                 : 24.0 MiB (0%)
    Language                    : Spanish
    Default                     : No
    Forced                      : No
    Original source medium      : Blu-ray

    Menu
    00:00:00.000                : Chapter 01
    00:02:31.151                : Chapter 02
    00:07:45.715                : Chapter 03
    00:10:00.224                : Chapter 04
    00:11:13.756                : Chapter 05
    00:19:16.530                : Chapter 06
    00:23:37.874                : Chapter 07
    00:24:59.873                : Chapter 08
    00:29:10.206                : Chapter 09
    00:32:42.752                : Chapter 10
    00:36:04.328                : Chapter 11
    00:38:06.367                : Chapter 12
    00:40:59.957                : Chapter 13
    00:43:34.320                : Chapter 14
    00:48:11.096                : Chapter 15
    00:53:24.826                : Chapter 16
    00:55:58.438                : Chapter 17
    00:59:20.765                : Chapter 18
    01:02:31.706                : Chapter 19
    01:07:51.650                : Chapter 20
    01:11:04.635                : Chapter 21
    01:15:28.857                : Chapter 22
    01:18:48.890                : Chapter 23
    01:25:22.826                : Chapter 24
    01:36:29.867                : Chapter 25
    01:39:23.791                : Chapter 26

  • Peso: 30.7 GiB

Sinopsis

El Dr. Axel Cross es detective, psicólogo forense y escritor de éxito de novelas criminales. Cuando su sobrina Naomí desaparece, inicia su propia investigación. Siete chicas han desaparecido y se han encontrado dos cadáveres. Al lado del último de ellos ha aparecido una nota firmada ‘Casanova’. Cross recibe la ayuda de Kate McTiernan, una joven doctora que ha conseguido escapar del secuestrador y puede ser la única persona capaz de identificarlo. A pesar de la reticencia inicial del detective, juntos emprenden una carrera contrarreloj para encontrar a la sobrina de Cross y descubrir la estremecedora verdad que se oculta tras su desaparición.

Ficha técnica

Video trailer de la película

Enlaces de descarga

Rip de Bluray

Descargar Kiss the Girls (1997) REMUX 1080p Latino – CMHDD


Aportes de DPeliculasHDmega la pass es:dpeliculashdmega.org Aportes de CinemaniaHD la pass es:cinemaniahdd.com
Guardado en : Crimen , Drama , Misterio , Suspenso

Películas relacionadas

  • Blonde (2022) NF WEB-DL 1080p Latino

    Blonde (2022) NF WEB-DL 1080p Latino

    2022
    Blonde (2022) NF WEB-DL 1080p Latino

    2h 46m 2022

    Descargar Blonde (2022) NF WEB-DL 1080p Latino. Basada en el bestseller de la cinco veces finalista al...

    Director: Kristin Bree Calabrese

    Género: Drama

    Actores: Xavier Samuel

  • La Máquina infernal (2022) WEB-DL 1080p Latino

    La Máquina infernal (2022) WEB-DL 1080p Latino

    2022
    La Máquina infernal (2022) WEB-DL 1080p Latino

    1h 47m 2022

    Descargar La Máquina infernal (2022) WEB-DL 1080p Latino. Un fan obsesivo saca de su escondite al solitario...

    Director: Andrew Hunt

    Género: Suspenso

    Actores: Rocco Salata

  • Borrego: Sal Del Camino (2022) HD 1080p Latino

    Borrego: Sal Del Camino (2022) HD 1080p Latino

    2022
    Borrego: Sal Del Camino (2022) HD 1080p Latino

    1h 42m 2022

    Descargar Borrego: Sal Del Camino (2022) HD 1080p Latino. Una joven botánica se traslada a un pequeño...

    Director: Jesse Harris

    Género: Crimen

    Actores: Olivia Trujillo

  • Borrego: Sal Del Camino (2022) REMUX 1080p Latino

    Borrego: Sal Del Camino (2022) REMUX 1080p Latino

    2022
    Borrego: Sal Del Camino (2022) REMUX 1080p Latino

    1h 42m 2022

    Descargar Borrego: Sal Del Camino (2022) REMUX 1080p Latino. Una joven botánica se traslada a un pequeño...

    Director: Jesse Harris

    Género: Crimen

    Actores: Olivia Trujillo

descargar Kiss the Girls (1997) REMUX 1080p Latino – CMHDD Full 1080p 1080p gratis, Kiss the Girls (1997) REMUX 1080p Latino – CMHDD Full 1080p mega 1 link, Kiss the Girls (1997) REMUX 1080p Latino – CMHDD Full 1080p pelicula completa, descargar Kiss the Girls (1997) REMUX 1080p Latino – CMHDD Full 1080p gratis en mega.

Kiss the Girls (1997) REMUX 1080p Latino – CMHDD pelicula full hd, Kiss the Girls (1997) REMUX 1080p Latino – CMHDD mega latino, Kiss the Girls (1997) REMUX 1080p Latino – CMHDD 4k latino, Kiss the Girls (1997) REMUX 1080p Latino – CMHDD pelicula completa, Kiss the Girls (1997) REMUX 1080p Latino – CMHDD descargar gratis, descargar Kiss the Girls (1997) REMUX 1080p Latino – CMHDD pelicula latino, Kiss the Girls (1997) REMUX 1080p Latino – CMHDD 1 link mega, Kiss the Girls (1997) REMUX 1080p Latino – CMHDD 1 link google drive, Kiss the Girls (1997) REMUX 1080p Latino – CMHDD hd 1080p latino.